Важное объявление!
У Нас Все раздачи мультитрекерные, при нуле пиров в релизах, можете смело вставать на закачку!
 
Автор Сообщение

HUNTER

Стаж:
4 года 4 месяца
Сообщений:
56790

Репутация: 101

[+] [-]
Вне форума [Профиль] [ЛС]

Обычное шоу: Фильм / Regular Show: The Movie
Страна: США
Студия: Cartoon Network Studios
Жанр: Мультфильм, комедия, приключения, фантастика
Год выпуска: 2015
Продолжительность: 01:08:39
Перевод: Одноголосый закадровый - mazehacka
Cубтитры: русские, английские
Оригинальная аудиодорожка: английский
Режиссер: Дж. Дж. Куинтел / J.G. Quintel
В ролях: Марк Хэмилл, Дэвид Кёкнер, Джейсон Манцукас, Сэм Марин, Дж.Дж. Куинтел, Уильям Салиерс, Роджер Крэйг Смит
Описание: Мордекаю и Ригби выпадает непростое испытание. Им необходимо в кратчайшие сроки спасти Вселенную, а так же свою дружбу.

Сэмпл: https://yadi.sk/i/d3Qn7tfUj4WhT
Тип релиза: WEB-DL 720p
Контейнер: MKV
Видео: 1280x718, 23,976 fps, MPEG-4 AVC, 4034 Kbps
Аудио 1: Russian: 48 kHz, AC3, 6 ch, 384 kbps |mazehacka|
Аудио 2: English: 48 kHz, AC3, 6 ch, 384 kbps Оригинал
Формат субтитров: softsub (SRT)

MediaInfo

General
Format : Matroska
Format version : Version 4 / Version 2
File size : 2.35 GiB
Duration : 1h 8mn
Overall bit rate : 4 893 Kbps
Encoded date : UTC 2015-09-13 14:40:20
Writing application : mkvmerge v8.3.0 ('Over the Horizon') 64bit
Writing library : libebml v1.3.1 + libmatroska v1.4.2
DURATION : 01:08:39.520000000
NUMBER_OF_FRAMES : 128735
NUMBER_OF_BYTES : 197736960
_STATISTICS_WRITING_APP : mkvmerge v8.3.0 ('Over the Horizon') 64bit
_STATISTICS_WRITING_DATE_UTC : 2015-09-13 14:40:20
_STATISTICS_TAGS : BPS DURATION NUMBER_OF_FRAMES NUMBER_OF_BYTES
Video
ID : 1
Format : AVC
Format/Info : Advanced Video Codec
Format profile : High@L3.1
Format settings, CABAC : No
Format settings, ReFrames : 2 frames
Codec ID : V_MPEG4/ISO/AVC
Duration : 1h 8mn
Bit rate : 4 034 Kbps
Width : 1 280 pixels
Height : 718 pixels
Display aspect ratio : 16:9
Frame rate mode : Constant
Frame rate : 23.976 fps
Color space : YUV
Chroma subsampling : 4:2:0
Bit depth : 8 bits
Scan type : Progressive
Bits/(Pixel*Frame) : 0.183
Stream size : 1.93 GiB (82%)
Language : English
Default : Yes
Forced : No
Color range : Limited
Color primaries : BT.709
Transfer characteristics : BT.709
Matrix coefficients : BT.709
Audio #1
ID : 2
Format : AC-3
Format/Info : Audio Coding 3
Mode extension : CM (complete main)
Format settings, Endianness : Big
Codec ID : A_AC3
Duration : 1h 8mn
Bit rate mode : Constant
Bit rate : 384 Kbps
Channel(s) : 6 channels
Channel positions : Front: L C R, Side: L R, LFE
Sampling rate : 48.0 KHz
Compression mode : Lossy
Stream size : 189 MiB (8%)
Title : AVO
Language : Russian
Default : No
Forced : No
Audio #2
ID : 3
Format : AC-3
Format/Info : Audio Coding 3
Mode extension : CM (complete main)
Format settings, Endianness : Big
Codec ID : A_AC3
Duration : 1h 8mn
Bit rate mode : Constant
Bit rate : 384 Kbps
Channel(s) : 6 channels
Channel positions : Front: L C R, Side: L R, LFE
Sampling rate : 48.0 KHz
Compression mode : Lossy
Stream size : 189 MiB (8%)
Language : English
Default : No
Forced : No
Text #1
ID : 4
Format : UTF-8
Codec ID : S_TEXT/UTF8
Codec ID/Info : UTF-8 Plain Text
Title : Dakota Family Translators
Language : Russian
Default : No
Forced : No

Скриншоты


_________________
Показать сообщения:    

Текущее время: Сегодня 13:53

Часовой пояс: GMT



Вы не можете начинать темы
Вы не можете отвечать на сообщения
Вы не можете редактировать свои сообщения
Вы не можете удалять свои сообщения
Вы не можете голосовать в опросах
Вы не можете прикреплять файлы к сообщениям
Вы не можете скачивать файлы