Важное объявление!
У Нас Все раздачи мультитрекерные, при нуле пиров в релизах, можете смело вставать на закачку!
 
Автор Сообщение

HUNTER

Стаж:
4 года 4 месяца
Сообщений:
56722

Репутация: 101

[+] [-]
Вне форума [Профиль] [ЛС]

Обыкновенное сердце / The Normal Heart
Страна: США
Студия: HBO Films, Blumhouse Productions и др.
Жанр: драма
Год выпуска: 2014
Продолжительность: 02:12:35
Перевод: Профессиональный (многоголосый закадровый)
Cубтитры: русские(присутствует ненормативная лексика), английские(full, SDH)
Оригинальная аудиодорожка: английский
Режиссер: Райан Мерфи / Ryan Murphy
В ролях: Марк Руффало, Мэтт Бомер, Тейлор Китч, Джим Парсонс, Джулия Робертс, Джонатан Грофф, Фрэнк де Хулио, Уилльям ДеМеритт, Джо Мантелло, Шон Миэн
Описание: Драма, действие которой происходит в первой половине 1980-х, рассказывает о нескольких жителях Нью-Йорка, которые пытаются привлечь внимание властей и общества к начинающейся эпидемии СПИДа.

Sample
Тип релиза: BDRip 1080p - HDWinG
Контейнер: MKV
Видео: MPEG4 AVC Video, H264, 16:9, 1920x1080, 23.976 fps, 18.9 Mbps
Аудио: Russian (Dolby AC3, 6 ch, 384 kbps, 16 bits, 48.0 KHz) - MVO
Аудио 2: English (DTS, 6 ch, 1509 kbps, 24 bits, 48.0 KHz) - оригинал
Формат субтитров: softsub (SRT)

x264

x264 [info]: frame I:1238 Avg QP:17.73 size:214410
x264 [info]: frame P:42434 Avg QP:19.17 size:127282
x264 [info]: frame B:147071 Avg QP:19.93 size: 89259
x264 [info]: consecutive B-frames: 2.3% 3.0% 13.6% 9.9% 15.4% 48.1% 3.9% 1.3% 2.6%

MediaInfo

General
Unique ID : 188372906838611931793034413138102182678 (0x8DB74D5CECD56F039B6D27806FD3E316)
Complete name : E:\1\The Normal Heart 2014 BDRip 1080p.mkv
Format : Matroska
Format version : Version 4 / Version 2
File size : 19.3 GiB
Duration : 2h 12mn
Overall bit rate : 20.8 Mbps
Encoded date : UTC 2014-08-18 19:01:22
Writing application : mkvmerge v6.1.0 ('Old Devil') built on Mar 2 2013 14:32:37
Writing library : libebml v1.3.0 + libmatroska v1.4.0
Video
ID : 1
Format : AVC
Format/Info : Advanced Video Codec
Format profile : High@L4.1
Format settings, CABAC : Yes
Format settings, ReFrames : 4 frames
Codec ID : V_MPEG4/ISO/AVC
Duration : 2h 12mn
Bit rate : 18.9 Mbps
Width : 1 920 pixels
Height : 1 080 pixels
Display aspect ratio : 16:9
Frame rate mode : Constant
Frame rate : 23.976 fps
Color space : YUV
Chroma subsampling : 4:2:0
Bit depth : 8 bits
Scan type : Progressive
Bits/(Pixel*Frame) : 0.380
Stream size : 17.1 GiB (89%)
Writing library : x264 core 142 r2431+42 c69a006 tMod [8-bit@4:2:0 X86_64]
Encoding settings : cabac=1 / ref=4 / deblock=1:-3:-3 / analyse=0x3:0x113 / me=umh / subme=11 / psy=1 / fade_compensate=0.00 / psy_rd=1.10:0.05 / mixed_ref=1 / me_range=48 / chroma_me=1 / trellis=2 / 8x8dct=1 / cqm=0 / deadzone=21,11 / fast_pskip=0 / chroma_qp_offset=-3 / threads=18 / lookahead_threads=3 / sliced_threads=0 / nr=0 / decimate=0 / interlaced=0 / bluray_compat=0 / constrained_intra=0 / fgo=0 / bframes=8 / b_pyramid=2 / b_adapt=2 / b_bias=0 / direct=3 / weightb=1 / open_gop=0 / weightp=2 / keyint=240 / keyint_min=24 / scenecut=40 / intra_refresh=0 / rc_lookahead=40 / rc=2pass / mbtree=0 / bitrate=18900 / ratetol=1.0 / qcomp=0.70 / qpmin=0:0:0 / qpmax=69:69:69 / qpstep=4 / cplxblur=20.0 / qblur=0.5 / vbv_maxrate=50000 / vbv_bufsize=40000 / nal_hrd=none / filler=0 / ip_ratio=1.20 / pb_ratio=1.20 / aq=4:0.85 / aq-sensitivity=10.00 / aq-factor=1.00:1.00:1.00 / aq2=0 / aq3=0
Language : English
Default : Yes
Forced : No
Audio #1
ID : 2
Format : AC-3
Format/Info : Audio Coding 3
Mode extension : CM (complete main)
Format settings, Endianness : Big
Codec ID : A_AC3
Duration : 2h 12mn
Bit rate mode : Constant
Bit rate : 384 Kbps
Channel count : 6 channels
Channel positions : Front: L C R, Side: L R, LFE
Sampling rate : 48.0 KHz
Bit depth : 16 bits
Compression mode : Lossy
Stream size : 364 MiB (2%)
Title : MVO
Language : Russian
Default : Yes
Forced : No
Audio #2
ID : 3
Format : DTS
Format/Info : Digital Theater Systems
Mode : 16
Format settings, Endianness : Big
Codec ID : A_DTS
Duration : 2h 12mn
Bit rate mode : Constant
Bit rate : 1 509 Kbps
Channel count : 6 channels
Channel positions : Front: L C R, Side: L R, LFE
Sampling rate : 48.0 KHz
Bit depth : 24 bits
Compression mode : Lossy
Stream size : 1.40 GiB (7%)
Language : English
Default : No
Forced : No
Text #1
ID : 4
Format : UTF-8
Codec ID : S_TEXT/UTF8
Codec ID/Info : UTF-8 Plain Text
Language : Russian
Default : No
Forced : No
Text #2
ID : 5
Format : UTF-8
Codec ID : S_TEXT/UTF8
Codec ID/Info : UTF-8 Plain Text
Language : English
Default : No
Forced : No
Text #3
ID : 6
Format : UTF-8
Codec ID : S_TEXT/UTF8
Codec ID/Info : UTF-8 Plain Text
Title : SDH
Language : English
Default : No
Forced : No

Source vs Encode

Source / Encode

Скриншоты


_________________
Показать сообщения:    

Текущее время: Сегодня 13:23

Часовой пояс: GMT



Вы не можете начинать темы
Вы не можете отвечать на сообщения
Вы не можете редактировать свои сообщения
Вы не можете удалять свои сообщения
Вы не можете голосовать в опросах
Вы не можете прикреплять файлы к сообщениям
Вы не можете скачивать файлы