Важное объявление!
У Нас Все раздачи мультитрекерные, при нуле пиров в релизах, можете смело вставать на закачку!
 
Автор Сообщение

HUNTER

Стаж:
4 года 4 месяца
Сообщений:
56839

Репутация: 101

[+] [-]
Вне форума [Профиль] [ЛС]

Обучение игре в теннис-

Год выпуска: 2007
Страна: Россия
Сайт производителя: отсутствует
Тематика: спорт
Тип материала: обучающее видео-Продолжительность: 00:55:00
Автор: Светлана Арсентьева-Язык: Русский - Профессиональный (одноголосый)
Субтитры: отсутствуют-Описание: Теннис - изысканный, аристократичный, и очень дорогой вид спорта. Аренда кортов и оплата труда тренера - удовольствие не из дешевых. Научить за 1 час играть в теннис невозможно. Но из часового видеофильма можно узнать очень многое о том насколько для Вас реально подружиться с ракеткой и с желтым мячом. В этом Вам помогут вице-президент Федерации тенниса Москвы Юрий Айвазян, разработавший специальную методику обучения теннису людей старше 30 лет и заслуженный тренер России Виталий Полтев. Главное, чтобы Вы согласились со следующим утверждением: ЕСЛИ ЧЕЛОВЕК В СОСТОЯНИИ ПОДНЕСТИ ЛОЖКУ КО РТУ, ТО ОН СМОЖЕТ НАУЧИТЬСЯ ИГРАТЬ В ТЕННИС!-Качество: DVDRip
Формат: AVI
Видео кодек: MPEG4
Аудио кодек: MP3
Видео: DivX 5 640x480 25fps 1 590 Kbps
Аудио: MP3 44100Hz stereo 128kbps-

MediaInfo

Код: copyText_writeLink('this.parentNode.parentNode.nextSibling.nextSibling'); General
Complete name : E:\Обучение\теннис\tennis.avi
Format : DivX
Format/Info : Hack of AVI
File size : 681 MiB
Duration : 55mn 6s
Overall bit rate : 1 728 Kbps
Video
ID : 0
Format : MPEG-4 Visual
Format profile : Advanced Simple@L5
Format settings, BVOP : 2
Format settings, QPel : No
Format settings, GMC : No warppoints
Format settings, Matrix : Default (H.263)
Muxing mode : Packed bitstream
Codec ID : DX50
Codec ID/Hint : DivX 5
Duration : 55mn 6s
Bit rate : 1 590 Kbps
Width : 640 pixels
Height : 480 pixels
Display aspect ratio : 4:3
Frame rate : 25.000 fps
Color space : YUV
Chroma subsampling : 4:2:0
Bit depth : 8 bits
Scan type : Progressive
Compression mode : Lossy
Bits/(Pixel*Frame) : 0.207
Stream size : 627 MiB (92%)
Title : Video
Writing library : XviD 1.1.0 (UTC 2005-11-22)
Audio
ID : 1
Format : MPEG Audio
Format version : Version 1
Format profile : Layer 3
Mode : Joint stereo
Mode extension : MS Stereo
Codec ID : 55
Codec ID/Hint : MP3
Duration : 55mn 6s
Bit rate mode : Constant
Bit rate : 128 Kbps
Channel(s) : 2 channels
Sampling rate : 44.1 KHz
Compression mode : Lossy
Stream size : 50.5 MiB (7%)
Alignment : Split accross interleaves
Interleave, duration : 40 ms (1.00 video frame)
Interleave, preload duration : 500 ms
Title : Audio
Writing library : LAME3.96r
Encoding settings : -m j -V 4 -q 2 -lowpass 16 -b 128
- -

_________________
Показать сообщения:    

Текущее время: Сегодня 05:09

Часовой пояс: GMT



Вы не можете начинать темы
Вы не можете отвечать на сообщения
Вы не можете редактировать свои сообщения
Вы не можете удалять свои сообщения
Вы не можете голосовать в опросах
Вы не можете прикреплять файлы к сообщениям
Вы не можете скачивать файлы