Важное объявление!
У Нас Все раздачи мультитрекерные, при нуле пиров в релизах, можете смело вставать на закачку!
 
Автор Сообщение

HUNTER

Стаж:
4 года 4 месяца
Сообщений:
56733

Репутация: 101

[+] [-]
Вне форума [Профиль] [ЛС]

Обратная сторона любви / Противоположность любвиLo contrario al amor
Страна: Испания
Жанр: Комедия
Год выпуска: 2011
Продолжительность: 01:39:56
-
Перевод: Одноголосый закадровый Kenum
Cубтитры: русские Theta, английские
Оригинальная аудиодорожка: испанский
-
Режиссер: Висенте Вильянуэва / Vicente Villanueva
В ролях: Уго Сильва, Адриана Угарте, Алекс Бараона, Гвадалупе Ланчо, Луис Кальехо, Кити Манвер, Алехандро Касасека, Пако Луке, Хосе Прието, Марта Асас
-
Описание: После нескольких неудач Мерче и Рауль влюбляются друг в друга. Они неизбежно обречены повторить столь часто случающуюся историю того, как первая романтическая фаза быстро сменяется отношениями, желаниями и чувствами, не имеющими ничего общего с любовью и полностью противоположными ей.
[img]https://rating.kinopoisk.ru/530358.gif[/img]
Тип релиза: BDRip 720p CREATiVE
Контейнер: MKV
Видео: MPEG-4 AVC / PAL 16:9 / 1280x544 (2,35:1) / 4499 kbps / 25,000 fps / 0.259 bit/pixel / High@L4.1
Аудио 1: Russian / Dolby Digital Audio / 5.1 Ch / 48 kHz / 448 kbps / 16 bit | VO | Kenum
Аудио 2: Spanish / Dolby Digital Audio / 5.1 Ch / 48 kHz / 640 kbps / 16 bit | Original
Формат субтитров: softsub (SRT)
Навигация по главам: есть

x264 iNFO

Код:
x264 [info]: frame I:1371 Avg QP:12.04 size:112705
x264 [info]: frame P:33836 Avg QP:14.72 size: 42599
x264 [info]: frame B:114703 Avg QP:15.37 size: 15484
x264 [info]: consecutive B-frames: 2.8% 3.1% 9.5% 19.2% 14.4% 44.2% 5.2% 1.7%

MediaInfo

Код:
Общее
Уникальный идентификатор                 : 186152412949047149061484099580335595009 (0x8C0BA68FCF18FB4F8A7710F1EEC59E01)
Полное имя                               : N:\BDRip 720p\Lo contrario al amor.2011.BDRip.720p.mkv
Формат                                   : Matroska
Версия формата                           : Version 4 / Version 2
Размер файла                             : 3,90 Гбайт
Продолжительность                        : 1 ч. 39 м.
Общий поток                              : 5589 Кбит/сек
Название фильма                          : Release for RuTracker © flaSI-I
Дата кодирования                         : UTC 2016-10-02 14:08:16
Программа кодирования                    : mkvmerge v9.4.2 ('So High') 64bit
Библиотека кодирования                   : libebml v1.3.4 + libmatroska v1.4.5
Видео
Идентификатор                            : 1
Формат                                   : AVC
Формат/Информация                        : Advanced Video Codec
Профиль формата                          : High@L4.1
Параметр CABAC формата                   : Да
Параметр ReFrames формата                : 12 кадров
Идентификатор кодека                     : V_MPEG4/ISO/AVC
Продолжительность                        : 1 ч. 39 м.
Битрейт                                  : 4500 Кбит/сек
Ширина                                   : 1280 пикселей
Высота                                   : 544 пикселя
Соотношение сторон                       : 2,35:1
Режим частоты кадров                     : Постоянный
Частота кадров                           : 25,000 кадров/сек
Цветовое пространство                    : YUV
Субдискретизация насыщенности            : 4:2:0
Битовая глубина                          : 8 бит
Тип развёртки                            : Прогрессивная
Бит/(Пиксели*Кадры)                      : 0.259
Размер потока                            : 3,14 Гбайт (80%)
Библиотека кодирования                   : x264 core 148 r2705 3f5ed56
Настройки программы                      : cabac=1 / ref=12 / deblock=1:-3:-3 / analyse=0x3:0x133 / me=umh / subme=10 / psy=1 / psy_rd=1.00:0.00 / mixed_ref=1 / me_range=32 / chroma_me=1 / trellis=2 / 8x8dct=1 / cqm=0 / deadzone=21,11 / fast_pskip=0 / chroma_qp_offset=-2 / threads=6 / lookahead_threads=1 / sliced_threads=0 / nr=0 / decimate=0 / interlaced=0 / bluray_compat=0 / constrained_intra=0 / bframes=7 / b_pyramid=2 / b_adapt=2 / b_bias=0 / direct=3 / weightb=1 / open_gop=0 / weightp=2 / keyint=250 / keyint_min=25 / scenecut=40 / intra_refresh=0 / rc_lookahead=60 / rc=2pass / mbtree=0 / bitrate=4500 / ratetol=1.0 / qcomp=0.70 / qpmin=0 / qpmax=51 / qpstep=4 / cplxblur=20.0 / qblur=0.5 / vbv_maxrate=62500 / vbv_bufsize=78125 / nal_hrd=none / filler=0 / ip_ratio=1.30 / pb_ratio=1.20 / aq=3:0.80
Язык                                     : Spanish
Default                                  : Да
Forced                                   : Нет
Аудио #1
Идентификатор                            : 2
Формат                                   : AC-3
Формат/Информация                        : Audio Coding 3
Расширение режима                        : CM (complete main)
Параметр Endianness формата              : Big
Идентификатор кодека                     : A_AC3
Продолжительность                        : 1 ч. 39 м.
Вид битрейта                             : Постоянный
Битрейт                                  : 448 Кбит/сек
Каналы                                   : 6 каналов
Расположение каналов                     : Front: L C R, Side: L R, LFE
Частота                                  : 48,0 КГц
Частота кадров                           : 31,250 кадров/сек (1536 spf)
Метод сжатия                             : С потерями
Размер потока                            : 320 Мбайт (8%)
Заголовок                                : VO | Kenum
Язык                                     : Russian
Default                                  : Да
Forced                                   : Нет
Аудио #2
Идентификатор                            : 3
Формат                                   : AC-3
Формат/Информация                        : Audio Coding 3
Расширение режима                        : CM (complete main)
Параметр Endianness формата              : Big
Идентификатор кодека                     : A_AC3
Продолжительность                        : 1 ч. 39 м.
Вид битрейта                             : Постоянный
Битрейт                                  : 640 Кбит/сек
Каналы                                   : 6 каналов
Расположение каналов                     : Front: L C R, Side: L R, LFE
Частота                                  : 48,0 КГц
Частота кадров                           : 31,250 кадров/сек (1536 spf)
Метод сжатия                             : С потерями
Размер потока                            : 457 Мбайт (11%)
Заголовок                                : Original
Язык                                     : Spanish
Default                                  : Нет
Forced                                   : Нет
Текст #1
Идентификатор                            : 4
Формат                                   : UTF-8
Идентификатор кодека                     : S_TEXT/UTF8
Идентификатор кодека/Информация          : UTF-8 Plain Text
Продолжительность                        : 1 ч. 35 м.
Битрейт                                  : 125 бит/сек
Count of elements                        : 1520
Размер потока                            : 88,0 Кбайт (0%)
Заголовок                                : Theta
Язык                                     : Russian
Default                                  : Нет
Forced                                   : Нет
Текст #2
Идентификатор                            : 5
Формат                                   : UTF-8
Идентификатор кодека                     : S_TEXT/UTF8
Идентификатор кодека/Информация          : UTF-8 Plain Text
Продолжительность                        : 1 ч. 35 м.
Битрейт                                  : 62 бит/сек
Count of elements                        : 1520
Размер потока                            : 44,1 Кбайт (0%)
Заголовок                                : FULL
Язык                                     : English
Default                                  : Нет
Forced                                   : Нет
Меню
00:00:00.000                             : en:00:00:00.000
00:07:28.080                             : en:00:07:28.080
00:17:01.880                             : en:00:17:01.880
00:25:10.960                             : en:00:25:10.960
00:33:55.480                             : en:00:33:55.480
00:43:40.400                             : en:00:43:40.400
00:50:52.880                             : en:00:50:52.880
01:00:21.240                             : en:01:00:21.240
01:10:03.800                             : en:01:10:03.800
01:18:13.480                             : en:01:18:13.480
01:25:18.040                             : en:01:25:18.040
01:31:05.880                             : en:01:31:05.880

Скриншоты

-


_________________
Показать сообщения:    

Текущее время: Сегодня 00:28

Часовой пояс: GMT



Вы не можете начинать темы
Вы не можете отвечать на сообщения
Вы не можете редактировать свои сообщения
Вы не можете удалять свои сообщения
Вы не можете голосовать в опросах
Вы не можете прикреплять файлы к сообщениям
Вы не можете скачивать файлы