Важное объявление!
У Нас Все раздачи мультитрекерные, при нуле пиров в релизах, можете смело вставать на закачку!
 
Автор Сообщение

HUNTER

Стаж:
4 года 4 месяца
Сообщений:
56733

Репутация: 101

[+] [-]
Вне форума [Профиль] [ЛС]

Облачный атлас / Cloud Atlas / Open Matte
Страна: Германия, Гонконг, США, Сингапур
Жанр: фантастика, драма
Год выпуска: 2012
Продолжительность: 02:52:33
Перевод: Профессиональный (дублированный) DUB (Rus)
Перевод 2: Авторский (одноголосый закадровый) AVO Сербин (Rus)
Перевод 3: Авторский (одноголосый закадровый) AVO Иванов (Rus)
Перевод 4: Одноголосый закадровый VO zamez (Rus)
Перевод 5: Профессиональный (дублированный) Dub, LeDoyen Studio (Ukr)
Cубтитры: русские, английские, немецкие
Оригинальная аудиодорожка: английский
Чаптеры: Сохранены чаптеры с ремукса
Режиссер: Лана Вачовски, Том Тыквер, Энди Вачовски / Lana Wachowski, Tom Tykwer, Andy Wachowski
В ролях: Том Хэнкс (Tom Hanks), Холли Берри (Halle Berry), Джим Бродбент (Jim Broadbent), Джим Стёрджесс (Jim Sturgess), Бен Уишоу (Ben Whishaw), Хьюго Уивинг (Hugo Weaving), Пэ Ду На (Bae Du Na), Хью Грант (Hugh Grant), Сьюзен Сарандон (Susan Sarandon), Джеймс Д’Арси (James D'Arcy), Кит Дэвид (Keith David) и др.
Описание: Шесть историй — пять реинкарнаций, происходящих в разное время, тесно переплетаются между собой…
Сэмпл: http://sendfile.su/1208515
Тип релиза: BDRip 1080p
Контейнер: MKV
Видео: MPEG-4 AVC/ 11,9 Mbps / 1920x1080 / 23.976 fps / 16:9 / High Profile 4.1
Аудио 1: Russian: DTS Audio 5.1 / 48 kHz / 1509 kbps / 16 bit | [Дубляж, Blu-Ray]
Аудио 2: Russian: DTS Audio 5.1 / 48 kHz / 1509 kbps / 24 bit | [Ю.Сербин]
Аудио 3: Russian: DTS Audio 5.1 / 48 kHz / 1509 kbps / 24 bit | [М.Иванов]
Аудио 4: Russian: DTS Audio 5.1 / 48 kHz / 1509 kbps / 24 bit | [zamez]
Аудио 5: Ukrainian: 48 kHz, AC3, 3/2 (L,C,R,l,r) + LFE ch, ~448.00 kbps avg - [Dub, LeDoyen Studio]
Аудио 6: English: DTS Audio 5.1 / 48 kHz / 1509 kbps / 24 bit
Формат субтитров: softsub (SRT)

MediaInfo

Общее
Уникальный идентификатор : 246317228169742025775487402053635613275 (0xB94EF8F95E4317BDB705C621291B225B)
Полное имя : G:\Облачный Атлас\Cloud.Atlas.2012.720p.BluRay.OM.DTS.1.x264\Cloud.Atlas.2012.1080p.BluRay.OM.DTS5.1.x264.mkv
Формат : Matroska
Версия формата : Version 2
Размер файла : 24,5 Гбайт
Продолжительность : 2 ч. 52 м.
Общий поток : 20,3 Мбит/сек
Дата кодирования : UTC 2016-01-31 20:03:22
Программа кодирования : mkvmerge v7.9.0 ('Birds') 32bit
Библиотека кодирования : libebml v1.3.1 + libmatroska v1.4.2
Видео
Идентификатор : 1
Формат : AVC
Формат/Информация : Advanced Video Codec
Профиль формата : High@L4.1
Параметр CABAC формата : Да
Параметр ReFrames формата : 4 кадра
Идентификатор кодека : V_MPEG4/ISO/AVC
Продолжительность : 2 ч. 52 м.
Битрейт : 11,9 Мбит/сек
Ширина : 1920 пикселей
Высота : 1080 пикселей
Соотношение сторон : 16:9
Режим частоты кадров : Постоянный
Частота кадров : 23,976 кадра/сек
Цветовое пространство : YUV
Субдискретизация насыщенности : 4:2:0
Битовая глубина : 8 бит
Тип развёртки : Прогрессивная
Бит/(Пиксели*Кадры) : 0.240
Размер потока : 14,4 Гбайт (59%)
Заголовок : Cloud Atlas
Библиотека кодирования : x264 core 148 r2638kMod 7599210
Настройки программы : cabac=1 / ref=4 / deblock=1:-1:-1 / analyse=0x3:0x133 / me=umh / subme=11 / psy=0 / mixed_ref=1 / me_range=32 / chroma_me=1 / trellis=2 / 8x8dct=1 / cqm=0 / deadzone=21,11 / fast_pskip=0 / chroma_qp_offset=0 / threads=6 / lookahead_threads=1 / sliced_threads=0 / nr=0 / decimate=0 / interlaced=0 / bluray_compat=0 / constrained_intra=0 / fgo=0 / bframes=12 / b_pyramid=2 / b_adapt=2 / b_bias=0 / direct=3 / weightb=1 / open_gop=0 / weightp=2 / keyint=250 / keyint_min=23 / scenecut=40 / intra_refresh=0 / rc_lookahead=120 / rc=crf / mbtree=0 / crf=17.0000 / qcomp=0.60 / qpmin=0 / qpmax=69 / qpstep=4 / vbv_maxrate=50000 / vbv_bufsize=62500 / crf_max=0.0 / nal_hrd=none / filler=0 / ip_ratio=1.40 / pb_ratio=1.30 / aq=1:0.60
Default : Да
Forced : Нет
Основные цвета : BT.709
Характеристики трансфера : BT.709
Коэффициенты матрицы : BT.709
Аудио #1
Идентификатор : 2
Формат : DTS
Формат/Информация : Digital Theater Systems
Режим : 16
Параметр Endianness формата : Big
Идентификатор кодека : A_DTS
Продолжительность : 2 ч. 52 м.
Вид битрейта : Постоянный
Битрейт : 1509 Кбит/сек
Каналы : 6 каналов
Расположение каналов : Front: L C R, Side: L R, LFE
Частота : 48,0 КГц
Битовая глубина : 16 бит
Метод сжатия : С потерями
Размер потока : 1,82 Гбайт (7%)
Заголовок : DTS 5.1 @ 1509 kbps - Dub, Blu-Ray
Язык : Russian
Default : Да
Forced : Нет
Аудио #2
Идентификатор : 3
Формат : DTS
Формат/Информация : Digital Theater Systems
Режим : 16
Параметр Endianness формата : Big
Идентификатор кодека : A_DTS
Продолжительность : 2 ч. 52 м.
Вид битрейта : Постоянный
Битрейт : 1509 Кбит/сек
Каналы : 6 каналов
Расположение каналов : Front: L C R, Side: L R, LFE
Частота : 48,0 КГц
Битовая глубина : 24 бит
Метод сжатия : С потерями
Размер потока : 1,82 Гбайт (7%)
Заголовок : DTS 5.1 @ 1509 kbps - AVO, Ю.Сербин
Язык : Russian
Default : Нет
Forced : Нет
Аудио #3
Идентификатор : 4
Формат : DTS
Формат/Информация : Digital Theater Systems
Режим : 16
Параметр Endianness формата : Big
Идентификатор кодека : A_DTS
Продолжительность : 2 ч. 52 м.
Вид битрейта : Постоянный
Битрейт : 1509 Кбит/сек
Каналы : 6 каналов
Расположение каналов : Front: L C R, Side: L R, LFE
Частота : 48,0 КГц
Битовая глубина : 24 бит
Метод сжатия : С потерями
Размер потока : 1,82 Гбайт (7%)
Заголовок : DTS 5.1 @ 1509 kbps - AVO, М.Иванов
Язык : Russian
Default : Нет
Forced : Нет
Аудио #4
Идентификатор : 5
Формат : DTS
Формат/Информация : Digital Theater Systems
Режим : 16
Параметр Endianness формата : Big
Идентификатор кодека : A_DTS
Продолжительность : 2 ч. 52 м.
Вид битрейта : Постоянный
Битрейт : 1509 Кбит/сек
Каналы : 6 каналов
Расположение каналов : Front: L C R, Side: L R, LFE
Частота : 48,0 КГц
Битовая глубина : 24 бит
Метод сжатия : С потерями
Размер потока : 1,82 Гбайт (7%)
Заголовок : DTS 5.1 @ 1509 kbps - VO, zamez
Язык : Russian
Default : Нет
Forced : Нет
Аудио #5
Идентификатор : 6
Формат : AC-3
Формат/Информация : Audio Coding 3
Расширение режима : CM (complete main)
Параметр Endianness формата : Big
Идентификатор кодека : A_AC3
Продолжительность : 2 ч. 52 м.
Вид битрейта : Постоянный
Битрейт : 448 Кбит/сек
Каналы : 6 каналов
Расположение каналов : Front: L C R, Side: L R, LFE
Частота : 48,0 КГц
Битовая глубина : 16 бит
Метод сжатия : С потерями
Размер потока : 553 Мбайт (2%)
Заголовок : AC3 5.1 @ 448 kbps - Dub, LeDoyen Studio
Язык : Ukrainian
Default : Нет
Forced : Нет
Аудио #6
Идентификатор : 7
Формат : DTS
Формат/Информация : Digital Theater Systems
Режим : 16
Параметр Endianness формата : Big
Идентификатор кодека : A_DTS
Продолжительность : 2 ч. 52 м.
Вид битрейта : Постоянный
Битрейт : 1509 Кбит/сек
Каналы : 6 каналов
Расположение каналов : Front: L C R, Side: L R, LFE
Частота : 48,0 КГц
Битовая глубина : 24 бит
Метод сжатия : С потерями
Размер потока : 1,82 Гбайт (7%)
Заголовок : DTS 5.1 Original @ 1509 kbps
Язык : English
Default : Нет
Forced : Нет
Текст #1
Идентификатор : 8
Формат : UTF-8
Идентификатор кодека : S_TEXT/UTF8
Идентификатор кодека/Информация : UTF-8 Plain Text
Заголовок : Forced Rus
Язык : Russian
Default : Да
Forced : Нет
Текст #2
Идентификатор : 9
Формат : UTF-8
Идентификатор кодека : S_TEXT/UTF8
Идентификатор кодека/Информация : UTF-8 Plain Text
Заголовок : Full Rus Blu-Ray
Язык : Russian
Default : Нет
Forced : Нет
Текст #3
Идентификатор : 10
Формат : UTF-8
Идентификатор кодека : S_TEXT/UTF8
Идентификатор кодека/Информация : UTF-8 Plain Text
Заголовок : Full Rus voronine
Язык : Russian
Default : Нет
Forced : Нет
Текст #4
Идентификатор : 11
Формат : UTF-8
Идентификатор кодека : S_TEXT/UTF8
Идентификатор кодека/Информация : UTF-8 Plain Text
Заголовок : Forced Eng
Язык : English
Default : Нет
Forced : Нет
Текст #5
Идентификатор : 12
Формат : UTF-8
Идентификатор кодека : S_TEXT/UTF8
Идентификатор кодека/Информация : UTF-8 Plain Text
Заголовок : Full Eng
Язык : English
Default : Нет
Forced : Нет
Текст #6
Идентификатор : 13
Формат : UTF-8
Идентификатор кодека : S_TEXT/UTF8
Идентификатор кодека/Информация : UTF-8 Plain Text
Заголовок : SDH Eng
Язык : English
Default : Нет
Forced : Нет
Текст #7
Идентификатор : 14
Формат : UTF-8
Идентификатор кодека : S_TEXT/UTF8
Идентификатор кодека/Информация : UTF-8 Plain Text
Заголовок : Forced Ger
Язык : German
Default : Нет
Forced : Нет
Текст #8
Идентификатор : 15
Формат : UTF-8
Идентификатор кодека : S_TEXT/UTF8
Идентификатор кодека/Информация : UTF-8 Plain Text
Заголовок : Full Ger
Язык : German
Default : Нет
Forced : Нет
Текст #9
Идентификатор : 16
Формат : UTF-8
Идентификатор кодека : S_TEXT/UTF8
Идентификатор кодека/Информация : UTF-8 Plain Text
Заголовок : SDH Ger
Язык : German
Default : Нет
Forced : Нет
Меню
00:00:00.000 : :Chapter 01
00:09:56.178 : :Chapter 02
00:19:42.014 : :Chapter 03
00:32:03.630 : :Chapter 04
00:40:28.676 : :Chapter 05
00:53:08.602 : :Chapter 06
01:02:02.969 : :Chapter 07
01:12:52.534 : :Chapter 08
01:24:43.870 : :Chapter 09
01:35:26.137 : :Chapter 10
01:47:06.128 : :Chapter 11
01:56:13.549 : :Chapter 12
02:06:20.489 : :Chapter 13
02:16:27.721 : :Chapter 14
02:26:29.322 : :Chapter 15
02:36:20.913 : :Chapter 16
02:43:11.281 : :Chapter 17

Скриншоты

Рип - Ремукс


Рип-
[url=viewtopic.php?t=4944661]http://rutracker.org/forum/viewtopic.php?t=4944661[/url]

Выброшен каждый 25-й кадр
Рип-
[url=viewtopic.php?t=5166603]http://rutracker.org/forum/viewtopic.php?t=5166603[/url]
Выполнен деинтерлей выбрасыванием дублирующихся полей
Выполнен деинтерлейс смешиванием полей
Рип-
[url=viewtopic.php?t=4463193]http://rutracker.org/forum/viewtopic.php?t=4463193[/url]

х264 лог

x264 [info]: 1920x1080p 1:1 @ 24000/1001 fps (cfr)
x264 [info]: using SAR=1/1
x264 [info]: using cpu capabilities: MMX2 SSE2Fast SSSE3 SSE4.2 AVX
x264 [info]: profile High, level 4.1
x264 [info]: cabac=1 ref=4 deblock=1:-1:-1 analyse=0x3:0x133 me=umh subme=11 psy=0 mixed_ref=1 me_range=32 chroma_me=1 trellis=2 8x8dct=1 cqm=0 deadzone=21,11 fast_pskip=0 chroma_qp_offset=0 threads=6 lookahead_threads=1 sliced_threads=0 nr=0 decimate=0 interlaced=0 bluray_compat=0 constrained_intra=0 fgo=0 bframes=12 b_pyramid=2 b_adapt=2 b_bias=0 direct=3 weightb=1 open_gop=0 weightp=2 keyint=250 keyint_min=23 scenecut=40 intra_refresh=0 rc_lookahead=120 rc=crf mbtree=0 crf=17.0000 qcomp=0.60 qpmin=0 qpmax=69 qpstep=4 vbv_maxrate=50000 vbv_bufsize=62500 crf_max=0.0 nal_hrd=none filler=0 ip_ratio=1.40 pb_ratio=1.30 aq=1:0.60
x264 [info]: frame I:1793 Avg QP:16.62 size:220691
x264 [info]: frame P:55753 Avg QP:17.44 size:129016
x264 [info]: frame B:190700 Avg QP:19.98 size: 43899
x264 [info]: consecutive B-frames: 1.9% 1.8% 7.2% 19.6% 49.6% 18.0% 0.2% 0.1% 0.1% 0.1% 0.1% 0.2% 1.1%
x264 [info]: mb I I16..4: 22.0% 64.9% 13.2%
x264 [info]: mb P I16..4: 15.7% 28.1% 7.4% P16..4: 21.0% 17.1% 5.5% 0.3% 0.0% skip: 4.8%
x264 [info]: mb B I16..4: 3.8% 5.0% 0.7% B16..8: 27.7% 16.5% 2.1% direct: 7.1% skip:37.0% L0:32.8% L1:32.8% BI:34.4%
x264 [info]: 8x8 transform intra:54.3% inter:54.4%
x264 [info]: direct mvs spatial:100.0% temporal:0.0%
x264 [info]: coded y,uvDC,uvAC intra: 81.0% 77.7% 38.9% inter: 30.0% 27.4% 5.1%
x264 [info]: i16 v,h,dc,p: 11% 10% 43% 35%
x264 [info]: i8 v,h,dc,ddl,ddr,vr,hd,vl,hu: 18% 13% 32% 6% 6% 7% 5% 7% 7%
x264 [info]: i4 v,h,dc,ddl,ddr,vr,hd,vl,hu: 22% 11% 38% 5% 6% 7% 4% 5% 4%
x264 [info]: i8c dc,h,v,p: 28% 33% 23% 16%
x264 [info]: Weighted P-Frames: Y:4.1% UV:2.5%
x264 [info]: ref P L0: 48.3% 9.0% 30.5% 11.2% 1.0% 0.0%
x264 [info]: ref B L0: 88.5% 9.0% 2.5%
x264 [info]: ref B L1: 98.1% 1.9%
x264 [info]: kb/s:12331.73
x264 [info]: encoded 248246 frames, 4.14 fps, 12331.73 kb/s, duration 16:39:03.53

О рипе

Исходный BD получен ускорением до 25 кадров в секунду и затем Pulldown до 29.97 кадров в секунду.
( С каденцией 199:33, указанной [url=viewtopic.php?p=69506396#69506396]tartak[/url])
При создании рипа для видео было выполнено обратное телекино преобразование и затем замедление до исходной частоты.
Чтобы не перетягивать обратно, звук был взят из американского трансфера
Рип получился длиннее американского трансфера за счет более длинной заставки.
Поэтому были сдвинуты звук, субтитры и чаптеры.

_________________
Показать сообщения:    

Текущее время: Сегодня 23:54

Часовой пояс: GMT



Вы не можете начинать темы
Вы не можете отвечать на сообщения
Вы не можете редактировать свои сообщения
Вы не можете удалять свои сообщения
Вы не можете голосовать в опросах
Вы не можете прикреплять файлы к сообщениям
Вы не можете скачивать файлы