Важное объявление!
У Нас Все раздачи мультитрекерные, при нуле пиров в релизах, можете смело вставать на закачку!
 
Автор Сообщение

HUNTER

Стаж:
4 года 4 месяца
Сообщений:
56848

Репутация: 101

[+] [-]
Вне форума [Профиль] [ЛС]

| Все релизы мультфильма || BDRemux 1080p, 20.94 GB |- P R E S E N T SОблачно... 2: Месть ГМО / Cloudy with a Chance of Meatballs 2-
Страна: США
Жанр: мультфильм, комедия, приключения, семейный
Продолжительность: 01:34:50
Год выпуска: 2013
Перевод: Профессиональный (полное дублирование)
Субтитры: есть-Режиссёр: Коуди Камерон / Cody Cameron, Крис Пирн / Kris Pearn
Роли озвучивали: Билл Хейдер, Анна Фэрис, Джеймс Каан, Уилл Форте, Энди Сэмберг, Бенджамин Брэтт, Нил Патрик Харрис, Терри Крюс, Кристен Шаал, Коуди Камерон, Мелисса Штурм, Крис Пирн, Крэйг Келлман, Хамани Гриффин, Бриджит Хоффман, Эл Рокер...
Роли дублировали: Александр Пушной, Игорь Угольников и др.- | | -Описание: Все жители острова Поплавок покинули родной дом после событий предыдущего мультфильма. Главный герой Флинт Локвуд теперь работает в компании The Live Corp на своего кумира Честера. Но ему придется оставить свой пост когда он узнает, что его печально-известная машина все ещё работает и производит на свет опасных гибридов. Флинту предстоит ещё раз спасти мир и не дать коварной машине распространить громадную еду по всему миру...-Доп. информация: BDRemux 1080p сделан с Blu-Ray диска Cloudy with a Chance of Meatballs 2 2013 1080p CEE Blu-ray AVC DTS-HD MA 5.1-HDCLUB (Локализованный видеоряд).-Сэмпл/Sample (227 MB, 1 минута)-Качество: BDRemux 1080p
Формат: MKV
Видео: 1920x1080 (1.778:1), 23,976 fps, ~27606 kbps avg, 0.555 bit/pixel
Аудио #1: Русский, AC3, 6 ch, 48 kHz, 640 kbps - Дубляж | BD CEE
Аудио #2: Украинский, AC3, 6 ch, 48 kHz, 640 kbps - Дубляж | BD CEE
Аудио #3: English, DTS-HD MA / 5.1 / 48 kHz / 2532 kbps / 24 bit (DTS Core: 5.1 / 48 kHz / 1509 kbps / 24-bit) - Original
Аудио #4: English, AC3, 2 ch, 48 kHz, 192 kbps - Commentary Directors Cody Cameron and Kris Pearn
Субтитры: Русские (форсированные), English (Full, Commentary)
Навигация по главам: есть (16 не именованных глав)

MediaInfo

GeneralUnique ID : 242438056656832637405129558741557312466 (0xB663DF0D596C7323B5678467B565FBD2)Complete name : Cloudy.with.a.Chance.of.Meatballs.II.2013.Rus.BDRemux.1080p.dfcbit.mkvFormat : MatroskaFormat version : Version 2File size : 20.9 GiBDuration : 1h 34mnOverall bit rate mode : VariableOverall bit rate : 31.6 MbpsEncoded date : UTC 2014-02-08 11:55:34Writing application : mkvmerge v4.0.0 ('The Stars were mine') built on Jun 6 2010 16:18:42Writing library : libebml v1.0.0 + libmatroska v1.0.0
VideoID : 1Format : AVCFormat/Info : Advanced Video CodecFormat profile : High@L4.1Format settings, CABAC : YesFormat settings, ReFrames : 2 framesCodec ID : V_MPEG4/ISO/AVCDuration : 1h 34mnBit rate mode : VariableBit rate : 27.0 MbpsWidth : 1 920 pixelsHeight : 1 080 pixelsDisplay aspect ratio : 16:9Frame rate mode : ConstantFrame rate : 23.976 fpsColor space : YUVChroma subsampling : 4:2:0Bit depth : 8 bitsScan type : ProgressiveBits/(Pixel*Frame) : 0.555Title : NTSC, 1920x1080 (1.778:1), Untached ~27606 kbps avg, BDRemux 1080p - tRuAVC & Multfilmy [DFCbit]Language : RussianDefault : YesForced : No
Audio #1ID : 2Format : AC-3Format/Info : Audio Coding 3Mode extension : CM (complete main)Format settings, Endianness : BigCodec ID : A_AC3Duration : 1h 34mnBit rate mode : ConstantBit rate : 640 KbpsChannel(s) : 6 channelsChannel positions : Front: L C R, Side: L R, LFESampling rate : 48.0 KHzBit depth : 16 bitsCompression mode : LossyStream size : 434 MiB (2%)Title : AC3, 6 ch, 48 kHz, 640 kbps - Дубляж | BD CEELanguage : RussianDefault : YesForced : No
Audio #2ID : 3Format : AC-3Format/Info : Audio Coding 3Mode extension : CM (complete main)Format settings, Endianness : BigCodec ID : A_AC3Duration : 1h 34mnBit rate mode : ConstantBit rate : 640 KbpsChannel(s) : 6 channelsChannel positions : Front: L C R, Side: L R, LFESampling rate : 48.0 KHzBit depth : 16 bitsCompression mode : LossyStream size : 434 MiB (2%)Title : AC3, 6 ch, 48 kHz, 640 kbps - Дубляж | BD CEELanguage : UkrainianDefault : NoForced : No
Audio #3ID : 4Format : DTSFormat/Info : Digital Theater SystemsFormat profile : MA / CoreMode : 16Format settings, Endianness : BigCodec ID : A_DTSDuration : 1h 34mnBit rate mode : VariableBit rate : 2 532 Kbps / 1 509 KbpsChannel(s) : 6 channelsChannel positions : Front: L C R, Side: L R, LFESampling rate : 48.0 KHzBit depth : 24 bitsCompression mode : Lossless / LossyTitle : DTS-HD MA / 5.1 / 48 kHz / 2532 kbps / 24 bits - OriginalLanguage : EnglishDefault : NoForced : No
Audio #4ID : 5Format : AC-3Format/Info : Audio Coding 3Mode extension : CM (complete main)Format settings, Endianness : BigCodec ID : A_AC3Duration : 1h 34mnBit rate mode : ConstantBit rate : 192 KbpsChannel(s) : 2 channelsChannel positions : Front: L RSampling rate : 48.0 KHzBit depth : 16 bitsCompression mode : LossyStream size : 130 MiB (1%)Title : AC3, 2 ch, 48 kHz, 192 kbps - Commentary Directors Cody Cameron and Kris PearnLanguage : EnglishDefault : NoForced : No
Text #1ID : 6Format : UTF-8Codec ID : S_TEXT/UTF8Codec ID/Info : UTF-8 Plain TextTitle : SRT, ForcedLanguage : RussianDefault : NoForced : No
Text #2ID : 7Format : UTF-8Codec ID : S_TEXT/UTF8Codec ID/Info : UTF-8 Plain TextTitle : SRT, FullLanguage : EnglishDefault : NoForced : No
Text #3ID : 8Format : UTF-8Codec ID : S_TEXT/UTF8Codec ID/Info : UTF-8 Plain TextTitle : SRT, CommentaryLanguage : EnglishDefault : NoForced : No
Menu00:00:00.000 : en:Chapter 100:07:12.015 : en:Chapter 200:12:51.521 : en:Chapter 300:18:50.421 : en:Chapter 400:25:58.390 : en:Chapter 500:31:57.082 : en:Chapter 600:36:53.253 : en:Chapter 700:39:28.908 : en:Chapter 800:41:07.840 : en:Chapter 900:45:28.017 : en:Chapter 1000:49:48.694 : en:Chapter 1100:54:41.403 : en:Chapter 1201:00:39.886 : en:Chapter 1301:06:47.921 : en:Chapter 1401:12:54.954 : en:Chapter 1501:21:25.589 : en:Chapter 16

Скриншоты

Скриншот с названием мультфильма (Локализация)
--BDRemux 1080p

Релиз от групп | and | -Данный релиз не будет воспроизводиться на бытовых плеерах не поддерживающих MKV и H.264Обсуждение релизов в AVC формате || Свежие AVC рипы

_________________
Показать сообщения:    

Текущее время: Сегодня 09:36

Часовой пояс: GMT



Вы не можете начинать темы
Вы не можете отвечать на сообщения
Вы не можете редактировать свои сообщения
Вы не можете удалять свои сообщения
Вы не можете голосовать в опросах
Вы не можете прикреплять файлы к сообщениям
Вы не можете скачивать файлы
Наши партнеры: интернет магазин Ивановского трикотажа textilla.ru