Важное объявление!
У Нас Все раздачи мультитрекерные, при нуле пиров в релизах, можете смело вставать на закачку!
 
Автор Сообщение

HUNTER

Стаж:
4 года 4 месяца
Сообщений:
56853

Репутация: 101

[+] [-]
Вне форума [Профиль] [ЛС]

Обитель Зла: Возмездие / Resident Evil: Retribution-
Страна: США, Германия, Канада
Жанр: ужасы, фантастика, боевик, триллер
Год выпуска: 2012
Продолжительность: 01:35:37
Перевод: Профессиональный (дублированный)
+ Авторский одноголосый закадровый Гаврилов
Cубтитры: русские, английские
Оригинальная аудиодорожка: английский-Режиссер: Пол У. С. Андерсон / Paul W.S. Anderson
В ролях: Милла Йовович, Сиенна Гиллори, Мишель Родригес, Ариана Энджинир, Ли Бинбин, Борис Коджо, Йохан Урб, Робин Касянов, Кевин Дюран, Офилио Портильо.
Описание: Смертельный T-вирус, созданный в лабораториях корпорации «Амбрелла», продолжает захватывать Землю, превращая мировое население в легионы пожирающих плоть зомби. Последняя надежда человечества Элис внедряется в самое сердце самой тайной исследовательской базы корпорации и узнает еще больше о собственном таинственном прошлом. Не имея путей к отступлению, Элис продолжает искать виновных в глобальной катастрофе. Вызов, который она принимала в Токио, Нью-Йорке, Вашингтоне и даже в Москве, приводит ее в итоге к взрывающему сознание откровению, которое заставит ее переосмыслить все, что она полагала правдой. С помощью новых союзников и старых друзей, Элис будет сражаться за выживание и убегать из враждебного мира. Отсчет времени начат.-Тип релиза: BDRemux 1080p
Контейнер: MKV | Sample
Видео: 1920x1080 (16:9), 23.976 fps, High Profile 4.1 ~23958 kbps
Аудио 1: Russian 48 kHz, 5.1 AC3 Dolby Digital Audio, 640.00 kbps | Dub
Аудио 2: Ukrainian 48 kHz, 5.1 AC3 Dolby Digital Audio, 640.00 kbps | Dub
Аудио 3: Russian 48 kHz, 5.1 DTS-HD Master Audio, 4286.00 kbps | 48 kHz, 5.1 DTS Core, 1509.00 kbps | AVO
Аудио 4: English 48 kHz, 5.1 DTS-HD Master Audio, 3360.00 kbps | 48 kHz, 5.1 DTS Core, 1509.00 kbps | Original

Инфо

Формат : Matroska
Версия формата : Version 4 / Version 2
Размер файла : 22,0 Гбайт
Продолжительность : 1 ч. 35 м.
Режим общего битрейта : Переменный
Общий поток : 32,9 Мбит/сек
Название фильма : Resident Evil: Retribution 2012
Дата кодирования : UTC 2014-10-15 18:34:36
Программа кодирования : mkvmerge v6.6.0 ('The Edge Of The In Between') built on Dec 1 2013 17:55:00
Библиотека кодирования : libebml v1.3.0 + libmatroska v1.4.1
Видео
Идентификатор : 1
Формат : AVC
Формат/Информация : Advanced Video Codec
Профиль формата : High@L4.1
Параметр CABAC формата : Да
Параметр ReFrames формата : 2 кадра
Параметр GOP формата : M=1, N=10
Идентификатор кодека : V_MPEG4/ISO/AVC
Продолжительность : 1 ч. 35 м.
Вид битрейта : Переменный
Ширина : 1920 пикселей
Высота : 1080 пикселей
Соотношение сторон : 16:9
Режим частоты кадров : Постоянный
Частота кадров : 23,976 кадра/сек
Цветовое пространство : YUV
Субдискретизация насыщенности : 4:2:0
Битовая глубина : 8 бит
Тип развёртки : Прогрессивная
Заголовок : Blu-ray Remux EUR
Язык : English
Default : Да
Forced : Нет
Аудио #1
Идентификатор : 2
Формат : AC-3
Формат/Информация : Audio Coding 3
Расширение режима : CM (complete main)
Параметр Endianness формата : Big
Идентификатор кодека : A_AC3
Продолжительность : 1 ч. 35 м.
Вид битрейта : Постоянный
Битрейт : 640 Кбит/сек
Каналы : 6 каналов
Расположение каналов : Front: L C R, Side: L R, LFE
Частота : 48,0 КГц
Битовая глубина : 16 бит
Метод сжатия : С потерями
Размер потока : 438 Мбайт (2%)
Заголовок : Dub EUR
Язык : Russian
Default : Да
Forced : Нет
Аудио #2
Идентификатор : 3
Формат : AC-3
Формат/Информация : Audio Coding 3
Расширение режима : CM (complete main)
Параметр Endianness формата : Big
Идентификатор кодека : A_AC3
Продолжительность : 1 ч. 35 м.
Вид битрейта : Постоянный
Битрейт : 640 Кбит/сек
Каналы : 6 каналов
Расположение каналов : Front: L C R, Side: L R, LFE
Частота : 48,0 КГц
Битовая глубина : 16 бит
Метод сжатия : С потерями
Размер потока : 438 Мбайт (2%)
Заголовок : Dub EUR
Язык : Ukrainian
Default : Нет
Forced : Нет
Аудио #3
Идентификатор : 4
Формат : DTS
Формат/Информация : Digital Theater Systems
Профиль формата : MA / Core
Режим : 16
Параметр Endianness формата : Big
Идентификатор кодека : A_DTS
Продолжительность : 1 ч. 35 м.
Вид битрейта : Переменный
Битрейт : Неизвестно / 1509 Кбит/сек
Каналы : 6 каналов
Расположение каналов : Front: L C R, Side: L R, LFE
Частота : 48,0 КГц
Битовая глубина : 24 бит
Метод сжатия : Без потерь / Lossy
Заголовок : AVO Гаврилов
Язык : Russian
Default : Нет
Forced : Нет
Аудио #4
Идентификатор : 5
Формат : DTS
Формат/Информация : Digital Theater Systems
Профиль формата : MA / Core
Режим : 16
Параметр Endianness формата : Big
Идентификатор кодека : A_DTS
Продолжительность : 1 ч. 35 м.
Вид битрейта : Переменный
Битрейт : Неизвестно / 1509 Кбит/сек
Каналы : 6 каналов
Расположение каналов : Front: L C R, Side: L R, LFE
Частота : 48,0 КГц
Битовая глубина : 24 бит
Метод сжатия : Без потерь / Lossy
Заголовок : Original
Язык : English
Default : Нет
Forced : Нет
Текст #1
Идентификатор : 6
Формат : UTF-8
Идентификатор кодека : S_TEXT/UTF8
Идентификатор кодека/Информация : UTF-8 Plain Text
Заголовок : Full BD
Язык : Russian
Default : Нет
Forced : Нет
Текст #2
Идентификатор : 7
Формат : UTF-8
Идентификатор кодека : S_TEXT/UTF8
Идентификатор кодека/Информация : UTF-8 Plain Text
Заголовок : Full BD i
Язык : Russian
Default : Нет
Forced : Нет
Текст #3
Идентификатор : 8
Формат : UTF-8
Идентификатор кодека : S_TEXT/UTF8
Идентификатор кодека/Информация : UTF-8 Plain Text
Заголовок : Full Danis Nurmuxametov
Язык : Russian
Default : Нет
Forced : Нет
Текст #4
Идентификатор : 9
Формат : UTF-8
Идентификатор кодека : S_TEXT/UTF8
Идентификатор кодека/Информация : UTF-8 Plain Text
Заголовок : Full 1
Язык : English
Default : Нет
Forced : Нет
Текст #5
Идентификатор : 10
Формат : UTF-8
Идентификатор кодека : S_TEXT/UTF8
Идентификатор кодека/Информация : UTF-8 Plain Text
Заголовок : Full 2
Язык : English
Default : Нет
Forced : Нет
Текст #6
Идентификатор : 11
Формат : UTF-8
Идентификатор кодека : S_TEXT/UTF8
Идентификатор кодека/Информация : UTF-8 Plain Text
Заголовок : Full SDH
Язык : English
Default : Нет
Forced : Нет
Меню
00:00:00.000 : en:Chapter 01
00:07:43.045 : en:Chapter 02
00:14:32.538 : en:Chapter 03
00:21:38.839 : en:Chapter 04
00:25:39.329 : en:Chapter 05
00:29:31.186 : en:Chapter 06
00:34:16.846 : en:Chapter 07
00:39:14.769 : en:Chapter 08
00:45:29.435 : en:Chapter 09
00:50:27.441 : en:Chapter 10
00:54:42.070 : en:Chapter 11
01:00:14.861 : en:Chapter 12
01:05:38.476 : en:Chapter 13
01:11:22.903 : en:Chapter 14
01:16:15.571 : en:Chapter 15
01:21:29.384 : en:Chapter 16

Скриншоты


_________________
Показать сообщения:    

Текущее время: Сегодня 13:24

Часовой пояс: GMT



Вы не можете начинать темы
Вы не можете отвечать на сообщения
Вы не можете редактировать свои сообщения
Вы не можете удалять свои сообщения
Вы не можете голосовать в опросах
Вы не можете прикреплять файлы к сообщениям
Вы не можете скачивать файлы
Наши партнеры: интернет магазин Ивановского трикотажа textilla.ru