Важное объявление!
У Нас Все раздачи мультитрекерные, при нуле пиров в релизах, можете смело вставать на закачку!
 
Автор Сообщение

HUNTER

Стаж:
4 года 4 месяца
Сообщений:
56842

Репутация: 101

[+] [-]
Вне форума [Профиль] [ЛС]

Discovery.
Нью-Йорк: Взгляд изнутри / New York: Inside out
- --
Серия 1:
Транспортная система / Transportation

Год выпуска: 2009
Страна: США
Жанр: Документальный
Продолжительность: 00:44:00
Перевод: Профессиональный (одноголосый)
Русские субтитры: нет
Описание: Нью-Йорк - гигантский город, бурлящий, ни на что не похожий. Здесь живет 8 млн. человек, которым постоянно нужна пища, газ, вода и электричество. А еще городу жизненно необходима надежная транспортная система. Здесь всё работает беспрерывно - от метро до супертанкеров. На одни сутки мы отправляемся в путешествие по его громадной транспортной системе.СкриншотыMedia Info
General
Complete name : C:\New York. Inside out\New York. Inside Out. E01. Transportation.avi
Format : AVI
Format/Info : Audio Video Interleave
File size : 698 MiB
Duration : 44mn 0s
Overall bit rate : 2 216 Kbps
Writing application : VirtualDubMod 1.5.10.2 (build 2542/release)
Writing library : VirtualDubMod build 2542/release
Video
ID : 0
Format : MPEG-4 Visual
Format profile : Advanced Simple@L5
Format settings, BVOP : Yes
Format settings, QPel : No
Format settings, GMC : No warppoints
Format settings, Matrix : Default (H.263)
Muxing mode : Packed bitstream
Codec ID : XVID
Codec ID/Hint : XviD
Duration : 44mn 0s
Bit rate : 1 822 Kbps
Width : 704 pixels
Height : 400 pixels
Display aspect ratio : 16:9
Frame rate : 25.000 fps
Resolution : 8 bits
Colorimetry : 4:2:0
Scan type : Progressive
Bits/(Pixel*Frame) : 0.259
Stream size : 574 MiB (82%)
Writing library : XviD 1.2.1 (UTC 2008-12-04)
Audio
ID : 1
Format : AC-3
Format/Info : Audio Coding 3
Codec ID : 2000
Duration : 44mn 0s
Bit rate mode : Constant
Bit rate : 384 Kbps
Channel(s) : 6 channels
Channel positions : Front: L C R, Surround: L R, LFE
Sampling rate : 48.0 KHz
Stream size : 121 MiB (17%)
Alignment : Split accross interleaves
Interleave, duration : 40 ms (1.00 video frame)
Interleave, preload duration : 500 ms

-
-
Серия 2:
Энергосистема / Power

Год выпуска: 2009
Страна: США
Жанр: Документальный
Продолжительность: 00:44:07
Перевод: Профессиональный (одноголосый)
Русские субтитры: нет
Описание: Нью-Йорк - крупнейший город в мире. Электростанции большого яблока вырабатывают 11 тыс. мегаватт электричества в секунду. Выход из строя оборудования может стать настоящей катастрофой. Давайте посмотрим как удается обеспечить такой большой город необходимой электроэнергией.СкриншотыMedia Info
General
Complete name : C:\New York. Inside out\New York. Inside Out. E02. Power.avi
Format : AVI
Format/Info : Audio Video Interleave
File size : 700 MiB
Duration : 44mn 7s
Overall bit rate : 2 217 Kbps
Writing application : VirtualDubMod 1.5.10.2 (build 2542/release)
Writing library : VirtualDubMod build 2542/release
Video
ID : 0
Format : MPEG-4 Visual
Format profile : Advanced Simple@L5
Format settings, BVOP : Yes
Format settings, QPel : No
Format settings, GMC : No warppoints
Format settings, Matrix : Default (H.263)
Muxing mode : Packed bitstream
Codec ID : XVID
Codec ID/Hint : XviD
Duration : 44mn 7s
Bit rate : 1 824 Kbps
Width : 704 pixels
Height : 400 pixels
Display aspect ratio : 16:9
Frame rate : 25.000 fps
Resolution : 8 bits
Colorimetry : 4:2:0
Scan type : Progressive
Bits/(Pixel*Frame) : 0.259
Stream size : 575 MiB (82%)
Writing library : XviD 1.2.1 (UTC 2008-12-04)
Audio
ID : 1
Format : AC-3
Format/Info : Audio Coding 3
Codec ID : 2000
Duration : 44mn 7s
Bit rate mode : Constant
Bit rate : 384 Kbps
Channel(s) : 6 channels
Channel positions : Front: L C R, Surround: L R, LFE
Sampling rate : 48.0 KHz
Stream size : 121 MiB (17%)
Alignment : Split accross interleaves
Interleave, duration : 40 ms (1.00 video frame)
Interleave, preload duration : 500 ms

-
-
Серия 3:
Водоснабжение и канализация / Water and Waste

Год выпуска: 2009
Страна: США
Жанр: Документальный
Продолжительность: 00:44:07
Перевод: Профессиональный (одноголосый)
Русские субтитры: нет
Описание: Нью-Йорк - гигантский город, не похожий на другие. Каждый день 8 миллионов людей поглощают 1,2 миллиарда галлонов воды и производят 1,3 миллиарда галлонов отходов. Чистая вода, исправная канализация - это ключевые моменты жизни города. Любые неполадки в системе являются угрозой для жизни. Давайте окунемся в нью-йоркскую водопроводную канализационную систему и последнюю линию защиты между отходами Нью-Йорка и общественным пляжем.СкриншотыMedia Info
General
Complete name : C:\New York. Inside out\New York. Inside Out. E03. Water and Waste.avi
Format : AVI
Format/Info : Audio Video Interleave
File size : 700 MiB
Duration : 44mn 7s
Overall bit rate : 2 218 Kbps
Writing application : VirtualDubMod 1.5.10.2 (build 2542/release)
Writing library : VirtualDubMod build 2542/release
Video
ID : 0
Format : MPEG-4 Visual
Format profile : Advanced Simple@L5
Format settings, BVOP : Yes
Format settings, QPel : No
Format settings, GMC : No warppoints
Format settings, Matrix : Default (H.263)
Muxing mode : Packed bitstream
Codec ID : XVID
Codec ID/Hint : XviD
Duration : 44mn 7s
Bit rate : 1 824 Kbps
Width : 704 pixels
Height : 400 pixels
Display aspect ratio : 16:9
Frame rate : 25.000 fps
Resolution : 8 bits
Colorimetry : 4:2:0
Scan type : Progressive
Bits/(Pixel*Frame) : 0.259
Stream size : 576 MiB (82%)
Writing library : XviD 1.2.1 (UTC 2008-12-04)
Audio
ID : 1
Format : AC-3
Format/Info : Audio Coding 3
Codec ID : 2000
Duration : 44mn 7s
Bit rate mode : Constant
Bit rate : 384 Kbps
Channel(s) : 6 channels
Channel positions : Front: L C R, Surround: L R, LFE
Sampling rate : 48.0 KHz
Stream size : 121 MiB (17%)
Alignment : Split accross interleaves
Interleave, duration : 40 ms (1.00 video frame)
Interleave, preload duration : 500 ms

-
-Качество: HDTVRip [Исходник] - Спасибо автору DeLL.
Формат: AVI
Видео кодек: XviD
Аудио кодек: AC3
Видео: 704x400, 25.000 fps, ~1820 Kbps, b/p 0.259
Аудио: DD 5.1, 384 Kbps, 48 KHz

_________________
Показать сообщения:    

Текущее время: Сегодня 10:15

Часовой пояс: GMT



Вы не можете начинать темы
Вы не можете отвечать на сообщения
Вы не можете редактировать свои сообщения
Вы не можете удалять свои сообщения
Вы не можете голосовать в опросах
Вы не можете прикреплять файлы к сообщениям
Вы не можете скачивать файлы