Важное объявление!
У Нас Все раздачи мультитрекерные, при нуле пиров в релизах, можете смело вставать на закачку!
 
Автор Сообщение

HUNTER

Стаж:
4 года 4 месяца
Сообщений:
56772

Репутация: 101

[+] [-]
Вне форума [Профиль] [ЛС]

Нужные люди / People I Know
Страна: США, Германия
Жанр: драма, криминал
Год выпуска: 2002
Продолжительность: 01:39:27
Перевод#1: Профессиональный (двухголосый закадровый) (Тарадайкин)
Перевод#2: Профессиональный (двухголосый закадровый)
Перевод#3: Авторский (одноголосый закадровый), С. Визгунов
Cубтитры: русские, английские
Оригинальная аудиодорожка: английский
Режиссер: Дэниел Олгрант / Daniel Algrant
В ролях: Аль Пачино, Ким Бэсинджер, Райан О`Нил, Теа Леони, Ричард Шифф, Билл Нанн, Роберт Клейн, Марк Веббер, Элдон Баллок, Джульетт Папа
Описание: Высший свет Нью-Йорка боится и боготворит вездесущего Илая Вэрмана. Этот бывалый знаток человеческой натуры легко сводит вместе нужных людей и мирит врагов с немалой выгодой для себя...

Исходник: People I Know 2002 1080p Blu-ray AVC DTS-HD MA 5.1, thx LoVeRoSe@DON
Тип релиза: BDRemux 1080p | sample
Контейнер: MKV
Видео: MPEG-4 AVC Video / 17999 kbps / 1080p / 23,976 fps / 16:9 / High Profile 4.1
Аудио #1: Russian AC3 6ch 48kHz 448Kbps | DVO#1
Аудио #2: Russian AC3 2ch 48kHz 192Kbps | DVO#2
Аудио #3: Russian AC3 2ch 48kHz 192Kbps | AVO Визгунов
Аудио #4: English DTS-HD Master Audio / 3971 kbps / 5.1 / 48 kHz / 3971 kbps / 24-bit (DTS Core: 5.1 / 48 kHz / 1509 kbps / 24-bit) | Original
Формат субтитров: softsub (SRT)
Главы: есть

Дополнительно
Первая двухголоска перетянута отсюда
За работу над второй двухголоской и Визгуновым благодарим Linger babe
Визгунов плохенький, прибит шумодавом похоже
MediaInfo
General
Complete name : D:\...\People.I.Know.2002.1080p.Remux.AVC.3xRus.Eng.mkv
Format : Matroska
Format version : Version 2
File size : 15.8 GiB
Duration : 1h 39mn
Overall bit rate mode : Variable
Overall bit rate : 22.8 Mbps
Movie name : People.I.Know.2002.1080p.Remux.AVC.3xRus.Eng
Encoded date : UTC 2014-06-29 11:23:52
Writing application : mkvmerge v7.0.0 ('Where We Going') 64bit built on Jun 9 2014 15:16:27
Writing library : libebml v1.3.0 + libmatroska v1.4.1
Video
ID : 1
Format : AVC
Format/Info : Advanced Video Codec
Format profile : High@L4.1
Format settings, CABAC : Yes
Format settings, ReFrames : 4 frames
Format settings, GOP : M=3, N=24
Codec ID : V_MPEG4/ISO/AVC
Duration : 1h 39mn
Bit rate mode : Variable
Bit rate : 20.0 Mbps
Maximum bit rate : 22.0 Mbps
Width : 1 920 pixels
Height : 1 080 pixels
Display aspect ratio : 16:9
Frame rate mode : Constant
Frame rate : 23.976 fps
Standard : NTSC
Color space : YUV
Chroma subsampling : 4:2:0
Bit depth : 8 bits
Scan type : Progressive
Bits/(Pixel*Frame) : 0.401
Stream size : 13.9 GiB (88%)
Title : People I Know (2002)
Language : English
Default : Yes
Forced : No
Color primaries : BT.709
Transfer characteristics : BT.709
Matrix coefficients : BT.709
Audio #1
ID : 2
Format : AC-3
Format/Info : Audio Coding 3
Mode extension : CM (complete main)
Format settings, Endianness : Big
Codec ID : A_AC3
Duration : 1h 39mn
Bit rate mode : Constant
Bit rate : 448 Kbps
Channel(s) : 6 channels
Channel positions : Front: L C R, Side: L R, LFE
Sampling rate : 48.0 KHz
Bit depth : 16 bits
Compression mode : Lossy
Stream size : 319 MiB (2%)
Title : DVO#1
Language : Russian
Default : Yes
Forced : No
Audio #2
ID : 3
Format : AC-3
Format/Info : Audio Coding 3
Mode extension : CM (complete main)
Format settings, Endianness : Big
Codec ID : A_AC3
Duration : 1h 39mn
Bit rate mode : Constant
Bit rate : 192 Kbps
Channel(s) : 2 channels
Channel positions : Front: L R
Sampling rate : 48.0 KHz
Bit depth : 16 bits
Compression mode : Lossy
Stream size : 137 MiB (1%)
Title : DVO#2
Language : Russian
Default : No
Forced : No
Audio #3
ID : 4
Format : AC-3
Format/Info : Audio Coding 3
Mode extension : CM (complete main)
Format settings, Endianness : Big
Codec ID : A_AC3
Duration : 1h 39mn
Bit rate mode : Constant
Bit rate : 192 Kbps
Channel(s) : 2 channels
Channel positions : Front: L R
Sampling rate : 48.0 KHz
Bit depth : 16 bits
Compression mode : Lossy
Stream size : 137 MiB (1%)
Title : AVO Vizgunov
Language : Russian
Default : No
Forced : No
Audio #4
ID : 5
Format : DTS
Format/Info : Digital Theater Systems
Format profile : MA / Core
Codec ID : A_DTS
Duration : 1h 39mn
Bit rate mode : Variable
Bit rate : 1 561 Kbps / 1 510 Kbps
Channel(s) : 6 channels
Channel positions : Front: L C R, Side: L R, LFE
Sampling rate : 48.0 KHz
Bit depth : 24 bits
Compression mode : Lossless / Lossy
Title : Original
Language : English
Default : No
Forced : No
Text #1
ID : 6
Format : UTF-8
Codec ID : S_TEXT/UTF8
Codec ID/Info : UTF-8 Plain Text
Language : Russian
Default : No
Forced : No
Text #2
ID : 7
Format : UTF-8
Codec ID : S_TEXT/UTF8
Codec ID/Info : UTF-8 Plain Text
Language : English
Default : No
Forced : No
Menu
00:00:00.000 : en:00:00:00.000
00:04:27.392 : en:00:04:27.392
00:13:25.138 : en:00:13:25.138
00:20:39.822 : en:00:20:39.822
00:29:22.678 : en:00:29:22.678
00:39:50.096 : en:00:39:50.096
00:47:11.412 : en:00:47:11.412
00:54:30.726 : en:00:54:30.726
01:02:37.921 : en:01:02:37.921
01:12:20.378 : en:01:12:20.378
01:22:30.821 : en:01:22:30.821
01:35:10.288 : en:01:35:10.288
Скриншоты

_________________
Показать сообщения:    

Текущее время: Сегодня 17:17

Часовой пояс: GMT



Вы не можете начинать темы
Вы не можете отвечать на сообщения
Вы не можете редактировать свои сообщения
Вы не можете удалять свои сообщения
Вы не можете голосовать в опросах
Вы не можете прикреплять файлы к сообщениям
Вы не можете скачивать файлы