Важное объявление!
У Нас Все раздачи мультитрекерные, при нуле пиров в релизах, можете смело вставать на закачку!
 
Автор Сообщение

HUNTER

Стаж:
4 года 4 месяца
Сообщений:
56839

Репутация: 101

[+] [-]
Вне форума [Профиль] [ЛС]

Ночной сторож / Nattevagten / Nightwatch
Страна: Дания
Жанр: ужасы, триллер
Год выпуска: 1994
Продолжительность: 01:47:20
-
Перевод: Профессиональный (двухголосый закадровый)
Cубтитры: английские
Оригинальная аудиодорожка: датский
-
Режиссер: Уле Борнедаль / Ole Bornedal
В ролях: Николай Костер-Вальдау, Софи Гробёль, Ким Бодниа, Лотти Андерсен, Рикке Луиз Андерссон, Стиг Хоффмайер, Гирд Лофквист, Нильс Андерс Торн
-
Описание: Студент Мартин решил немного подработать. Для этой цели он нашел себе нехлопотное, спокойное и очень тихое место сторожа в морге. Конечно, немного страшновато, но ведь никто не мешает готовиться к занятиям, не отвлекает. Не отвлекает? Если бы так! Оказывается, именно сюда привозят трупы несчастных девушек, изуродованных кровожадным маньяком, держащим в страхе весь город. В морге начинают происходить странные вещи. В безмолвный мир мертвых вторгаются живые, и становится действительно жутко. Ведь мертвые не могут себя защитить.
-

-
Сэмпл: https://www.sendspace.com/file/bb4us0
-
Тип релиза: BDRip 720p
Контейнер: MKV
Видео: 1280x690p (1.85:1), 23.976 fps, 10 000 Kbps
Аудио 1: русский / AC3 / 2.0 / 48 kHz / 192 kbps / 16 bit || DVO
Аудио 2: датский / DTS / 5.1 / 48 kHz / 1509 kbps / 24 bit || DAN
Формат субтитров: softsub (SRT)
Главы: есть

Доп. информация

Рип от MediaClub, добавлены и подогнаны английские субтитры.

MediaInfo

General
Unique ID : 192635803342677427750682655531033024967 (0x90EC4E633F007DA6B4BF0852E005D9C7)
Complete name : C:\Users\ALEX\Downloads\Фильмы\HD\Nattevagten.Nightwatch.1994.BDRip.720p.Rus.Dan.Sub.Chpt.mkv
Format : Matroska
Format version : Version 4 / Version 2
File size : 8.77 GiB
Duration : 1h 47mn
Overall bit rate : 11.7 Mbps
Encoded date : UTC 2014-09-01 08:28:12
Writing application : mkvmerge v6.6.0 ('The Edge Of The In Between') built on Dec 1 2013 17:55:00
Writing library : libebml v1.3.0 + libmatroska v1.4.1
Video
ID : 1
Format : AVC
Format/Info : Advanced Video Codec
Format profile : High@L4.1
Format settings, CABAC : Yes
Format settings, ReFrames : 9 frames
Codec ID : V_MPEG4/ISO/AVC
Duration : 1h 47mn
Bit rate : 10 000 Kbps
Width : 1 280 pixels
Height : 690 pixels
Display aspect ratio : 1.85:1
Frame rate mode : Constant
Frame rate : 23.976 fps
Color space : YUV
Chroma subsampling : 4:2:0
Bit depth : 8 bits
Scan type : Progressive
Bits/(Pixel*Frame) : 0.472
Stream size : 7.32 GiB (83%)
Title : MediaClub
Writing library : x264 core 142 r2453kMod ea0ca51
Encoding settings : cabac=1 / ref=9 / deblock=1:-3:-3 / analyse=0x3:0x113 / me=umh / subme=11 / psy=1 / fade_compensate=0.00 / psy_rd=1.00:0.00 / mixed_ref=1 / me_range=48 / chroma_me=1 / trellis=2 / 8x8dct=1 / cqm=0 / deadzone=21,11 / fast_pskip=0 / chroma_qp_offset=-2 / threads=6 / lookahead_threads=1 / sliced_threads=0 / nr=0 / decimate=0 / interlaced=0 / bluray_compat=0 / constrained_intra=0 / fgo=0 / bframes=10 / b_pyramid=2 / b_adapt=2 / b_bias=0 / direct=3 / weightb=1 / open_gop=0 / weightp=2 / keyint=240 / keyint_min=23 / scenecut=40 / intra_refresh=0 / rc_lookahead=60 / rc=2pass / mbtree=0 / bitrate=10000 / ratetol=1.0 / qcomp=0.70 / qpmin=0 / qpmax=69 / qpstep=4 / cplxblur=20.0 / qblur=0.5 / vbv_maxrate=62500 / vbv_bufsize=78125 / nal_hrd=none / filler=0 / ip_ratio=1.40 / pb_ratio=1.30 / aq=1:0.65
Language : German
Default : Yes
Forced : No
Audio #1
ID : 2
Format : AC-3
Format/Info : Audio Coding 3
Mode extension : CM (complete main)
Format settings, Endianness : Big
Codec ID : A_AC3
Duration : 1h 47mn
Bit rate mode : Constant
Bit rate : 192 Kbps
Channel(s) : 2 channels
Channel positions : Front: L R
Sampling rate : 48.0 KHz
Bit depth : 16 bits
Compression mode : Lossy
Stream size : 147 MiB (2%)
Title : DVO
Language : Russian
Default : Yes
Forced : No
Audio #2
ID : 3
Format : DTS
Format/Info : Digital Theater Systems
Mode : 16
Format settings, Endianness : Big
Codec ID : A_DTS
Duration : 1h 47mn
Bit rate mode : Constant
Bit rate : 1 509 Kbps
Channel(s) : 6 channels
Channel positions : Front: L C R, Side: L R, LFE
Sampling rate : 48.0 KHz
Bit depth : 24 bits
Compression mode : Lossy
Stream size : 1.13 GiB (13%)
Title : Original
Language : Danish
Default : No
Forced : No
Text
ID : 4
Format : UTF-8
Codec ID : S_TEXT/UTF8
Codec ID/Info : UTF-8 Plain Text
Title : Full
Language : English
Default : No
Forced : No
Menu
00:00:00.000 : :Chapter 01
00:11:21.931 : :Chapter 02
00:18:44.248 : :Chapter 03
00:30:33.581 : :Chapter 04
00:40:58.372 : :Chapter 05
00:48:51.094 : :Chapter 06
00:59:40.451 : :Chapter 07
01:13:06.882 : :Chapter 08
01:21:36.099 : :Chapter 09
01:31:42.121 : :Chapter 10

Скриншоты


_________________
Показать сообщения:    

Текущее время: Сегодня 22:57

Часовой пояс: GMT



Вы не можете начинать темы
Вы не можете отвечать на сообщения
Вы не можете редактировать свои сообщения
Вы не можете удалять свои сообщения
Вы не можете голосовать в опросах
Вы не можете прикреплять файлы к сообщениям
Вы не можете скачивать файлы