Важное объявление!
У Нас Все раздачи мультитрекерные, при нуле пиров в релизах, можете смело вставать на закачку!
 
Автор Сообщение

HUNTER

Стаж:
4 года 4 месяца
Сообщений:
56749

Репутация: 101

[+] [-]
Вне форума [Профиль] [ЛС]

Ночной пилот (летун, стервятник) - Стивена Кинга / Stephen King's The Night Flier
Страна: США, Италия
Студия: Medusa Produzione / New Amsterdam Entertainment / Stardust International
Жанр: ужасы
Год выпуска: 1997
Продолжительность: 01:37:06
Перевод: Авторский (одноголосый закадровый) Живов
Перевод 2: Профессиональный (двухголосый закадровый)
Cубтитры: нет
Оригинальная аудиодорожка: английский
Режиссер: Марк Павиа / Mark Pavia)
В ролях: Мигель Феррер, Джулия Энтуайсл, Дэн Монаган, Майкл Мосс
Описание: Ричард и Кэтри, журналисты желтой газеты «Взгляд изнутри», охотятся за серийным убийцей по прозвищу «Ночной стервятник», который убивает людей на аэродромах небольших городков, прилетая на небольшом частном самолете. Вскоре Ричард начинает подозревать, что этим незнакомцем может быть самый настоящий вампир. Естественно, ему никто не верит…
Телевизионный фильм, очень похожий на сериал «Ночной охотник» с Дарреном Макгэвином, шедший в шестидесятых годах. В обоих случаях репортеры охотятся на убийцу-кровососа. На удивление очень много кровавых спецэффектов. Дебютный фильм Марка Павиа. Интересно, что этот телефильм после показа на TV некоторое время демонстрировался в ограниченном количестве кинотеатров. Девиз Ричарда: «Никогда не верь в то, что публикуешь, и никогда не публикуй то, во что веришь!». Множество фотографий с мест убийств, показанных в фильме-настоящие. Они взяты из фотоальбома реального детектива, работавшего в Лос-Анджелесе в 30-50 годах, и вышедшего в свет под названием «Death scenes». Академия фантастических фильмов, фэнтази и фильмов ужасов США номинировала картину на свой приз «Сатурн» за лучший VHS-релиз. Бюджет фильма составил 1 миллион долларов.
Доп. информация: Русские звуковые дорожки взяты с этих раздач http://rutracker.org/forum/tracker.php?f=2221&n...Night+Flier+1997 авторам большое спасибо.
За синхронизацию огромное спасибо Нордер.
При пересборе двд были использованы программы:
PgcDemux - разделение компонентов диска на файлы
Muxman - мультиплексирование и авторинг DVD
VobBlanker - реавторинг DVD

Скрин завершения проекта

Бонусы: Трейлеры, клип, интервью.
Сэмпл: http://sendfile.su/1127852
Тип релиза: DVD9 (Custom)
Контейнер: DVD-Video
Видео: PAL 4:3 (720x576) VBR
Аудио: Russian (Dolby AC3, 384 Kbps, 6 ch)
Аудио 2: Russian (Dolby AC3, 192 Kbps, 2 ch)
Аудио 3: English (Dolby AC3, 448 Kbps, 6 ch)

DVDInfo

Size: 5.09 Gb ( 5 338 128 KBytes ) - DVD-9
Enabled regions: 1, 2, 3, 4, 5, 6, 7, 8
VTS_01 :
Play Length: 00:00:25
Video: PAL 4:3 (720x576) VBR
Audio:
English (Dolby AC3, 2 ch)
VTS_02 :
Play Length: 00:00:49
Video: PAL 16:9 (720x576) VBR, Auto Pan&Scan
Audio:
Not specified (Dolby AC3, 6 ch)
Not specified (Dolby AC3, 6 ch)
VTS_03 :
Play Length: 01:37:06+00:01:28+00:00:34+00:04:19+00:01:41+00:01:00+00:01:16+00:01:12
Video: PAL 4:3 (720x576) VBR
Audio:
Russian (Dolby AC3, 6 ch)
Russian (Dolby AC3, 2 ch)
English (Dolby AC3, 6 ch)
Menu Video:
PAL 4:3 (720x576) VBR
Menu Subtitles:
Not specified
Menu Language Unit :
Root Menu

MediaInfo

General
Complete name : F:\The Night Flier_1997\VIDEO_TS\VTS_03_1.VOB
Format : MPEG-PS
File size : 1 024 MiB
Duration : 23mn 24s
Overall bit rate mode : Variable
Overall bit rate : 6 114 Kbps
Video
ID : 224 (0xE0)
Format : MPEG Video
Format version : Version 2
Format profile : Main@Main
Format settings, BVOP : Yes
Format settings, Matrix : Default
Format settings, GOP : M=3, N=13
Duration : 23mn 24s
Bit rate mode : Variable
Bit rate : 4 968 Kbps
Maximum bit rate : 8 000 Kbps
Width : 720 pixels
Height : 576 pixels
Display aspect ratio : 4:3
Frame rate : 25.000 fps
Standard : PAL
Color space : YUV
Chroma subsampling : 4:2:0
Bit depth : 8 bits
Scan type : Interlaced
Scan order : Top Field First
Compression mode : Lossy
Bits/(Pixel*Frame) : 0.479
Stream size : 832 MiB (81%)
Color primaries : BT.601 PAL
Transfer characteristics : BT.470 System B, BT.470 System G
Matrix coefficients : BT.601
Audio #1
ID : 189 (0xBD)-128 (0x80)
Format : AC-3
Format/Info : Audio Coding 3
Mode extension : CM (complete main)
Format settings, Endianness : Big
Muxing mode : DVD-Video
Duration : 23mn 24s
Bit rate mode : Constant
Bit rate : 384 Kbps
Channel(s) : 6 channels
Channel positions : Front: L C R, Side: L R, LFE
Sampling rate : 48.0 KHz
Bit depth : 16 bits
Compression mode : Lossy
Stream size : 64.3 MiB (6%)
Audio #2
ID : 189 (0xBD)-129 (0x81)
Format : AC-3
Format/Info : Audio Coding 3
Mode extension : CM (complete main)
Format settings, Endianness : Big
Muxing mode : DVD-Video
Duration : 23mn 24s
Bit rate mode : Constant
Bit rate : 192 Kbps
Channel(s) : 2 channels
Channel positions : Front: L R
Sampling rate : 48.0 KHz
Bit depth : 16 bits
Compression mode : Lossy
Stream size : 32.2 MiB (3%)
Audio #3
ID : 189 (0xBD)-130 (0x82)
Format : AC-3
Format/Info : Audio Coding 3
Mode extension : CM (complete main)
Format settings, Endianness : Big
Muxing mode : DVD-Video
Duration : 23mn 24s
Bit rate mode : Constant
Bit rate : 448 Kbps
Channel(s) : 6 channels
Channel positions : Front: L C R, Side: L R, LFE
Sampling rate : 48.0 KHz
Bit depth : 16 bits
Compression mode : Lossy
Stream size : 75.0 MiB (7%)
Menu

Скриншоты меню


_________________
Показать сообщения:    

Текущее время: Сегодня 23:46

Часовой пояс: GMT



Вы не можете начинать темы
Вы не можете отвечать на сообщения
Вы не можете редактировать свои сообщения
Вы не можете удалять свои сообщения
Вы не можете голосовать в опросах
Вы не можете прикреплять файлы к сообщениям
Вы не можете скачивать файлы