Важное объявление!
У Нас Все раздачи мультитрекерные, при нуле пиров в релизах, можете смело вставать на закачку!
 
Автор Сообщение

HUNTER

Стаж:
4 года 4 месяца
Сообщений:
56734

Репутация: 101

[+] [-]
Вне форума [Профиль] [ЛС]

Нортенгерское аббатство / Northanger Abbey
Страна: Великобритания, США, Ирландия
Жанр: драма
Год выпуска: 2007
Продолжительность: 01:32:29
-
Перевод: Профессиональный (многоголосый закадровый) Кармен Видео
Cубтитры: русские, английские [Full, SDH]
Оригинальная аудиодорожка: английский
-
Режиссер: Джон Джонс / Jon Jones
В ролях: Фелисити Джонс, Джей Джей Филд, Кэри Маллиган, Катрин Уолкер, Лиам Каннингэм, Сильвестра Ле Тузель, Десмонд Баррит, Уильям Бек, Хью О’Конор, Джеральдин Джеймс
-
Описание: Юная прелестница Кэтрин Морланд обожает читать "готические романы", изобилующие историями садистов-аристократов, измывающихся над девицами в старинных замках. Себя она так же воображает жертвой нападения неожиданных разбойников, или объектом истязаний возвышенных злодеев.
Познакомившись в курорте с неотразимым Генри Тилни и приняв приглашение посетить старинное поместье его предков, таинственное Нортенгерское аббатство, Кэтрин становится свидетельницей загадочных событий, в которых удивительным образом переплетаются реальность и фантазия...
[img]https://rating.kinopoisk.ru/301596.gif[/img]
Тип релиза: BDRip 720p
Контейнер: MKV
Видео: H.264 / PAL 16:9 / 1276x720 (1,78:1) / 11100 kbps / 25,000 fps / 0.483 bit/pixel / High@L4.1
Аудио 1: Russian / Dolby Digital Audio / 5.1 Ch / 48 kHz / 384 kbps / 16 bit | MVO | Кармен Видео
Аудио 2: English / Dolby Digital Audio / 5.1 Ch / 48 kHz / 384 kbps / 16 bit | Original | DVD
Аудио 3: English / Dolby Digital Audio / 2.0 Ch / 48 kHz / 192 kbps / 16 bit | Original | BD
Формат субтитров: softsub (SRT)
Навигация по главам: есть

x264

Код:
x264 [info]: frame I:858   Avg QP:17.01  size:127915
x264 [info]: frame P:25049 Avg QP:18.38  size: 86405
x264 [info]: frame B:112794 Avg QP:20.50  size: 48086
x264 [info]: consecutive B-frames:  0.9%  0.8%  2.7% 11.0% 11.5% 55.3%  6.5%  1.9%  7.2%  2.1%

MediaInfo

Код:
Общее
Уникальный идентификатор                 : 210820643893530973392019582925721072789 (0x9E9A943FB2B2A9F6936C11AC04847495)
Полное имя                               : N:\BDRip 720p\Northanger Abbey.2007.BDRip.720p.mkv
Формат                                   : Matroska
Версия формата                           : Version 4 / Version 2
Размер файла                             : 7,79 Гбайт
Продолжительность                        : 1 ч. 32 м.
Общий поток                              : 12,1 Мбит/сек
Название фильма                          : Release for RuTracker © flaSI-I
Дата кодирования                         : UTC 2016-09-16 18:15:34
Программа кодирования                    : mkvmerge v9.4.2 ('So High') 64bit
Библиотека кодирования                   : libebml v1.3.4 + libmatroska v1.4.5
Видео
Идентификатор                            : 1
Формат                                   : AVC
Формат/Информация                        : Advanced Video Codec
Профиль формата                          : High@L4.1
Параметр CABAC формата                   : Да
Параметр ReFrames формата                : 9 кадров
Идентификатор кодека                     : V_MPEG4/ISO/AVC
Продолжительность                        : 1 ч. 32 м.
Битрейт                                  : 11,1 Мбит/сек
Ширина                                   : 1276 пикселей
Высота                                   : 720 пикселей
Соотношение сторон                       : 16:9
Режим частоты кадров                     : Постоянный
Частота кадров                           : 25,000 кадров/сек
Цветовое пространство                    : YUV
Субдискретизация насыщенности            : 4:2:0
Битовая глубина                          : 8 бит
Тип развёртки                            : Прогрессивная
Бит/(Пиксели*Кадры)                      : 0.483
Размер потока                            : 7,17 Гбайт (92%)
Библиотека кодирования                   : x264 core 148 r2705+54 9f484c1 t_mod_Custom [8-bit@all X86_64]
Настройки программы                      : cabac=1 / ref=9 / deblock=1:-3:-3 / analyse=0x3:0x133 / me=umh / subme=10 / psy=1 / fade_compensate=0.00 / psy_rd=1.00:0.00 / mixed_ref=1 / me_range=32 / chroma_me=1 / trellis=2 / 8x8dct=1 / cqm=0 / deadzone=21,11 / fast_pskip=0 / chroma_qp_offset=-2 / threads=6 / lookahead_threads=1 / sliced_threads=0 / nr=0 / decimate=0 / interlaced=0 / bluray_compat=0 / constrained_intra=0 / fgo=0 / bframes=9 / b_pyramid=2 / b_adapt=2 / b_bias=0 / direct=3 / weightb=1 / open_gop=0 / weightp=2 / keyint=250 / keyint_min=25 / scenecut=40 / intra_refresh=0 / rc=crf / mbtree=0 / crf=17.3000 / qcomp=0.60 / qpmin=0:0:0 / qpmax=69:69:69 / qpstep=4 / ip_ratio=1.40 / pb_ratio=1.30 / aq=3:0.70 / aq-sensitivity=10.00 / aq-factor=1.00:1.00:1.00 / aq2=0 / aq3=0
Язык                                     : English
Default                                  : Да
Forced                                   : Нет
Аудио #1
Идентификатор                            : 2
Формат                                   : AC-3
Формат/Информация                        : Audio Coding 3
Расширение режима                        : CM (complete main)
Параметр Endianness формата              : Big
Идентификатор кодека                     : A_AC3
Продолжительность                        : 1 ч. 32 м.
Вид битрейта                             : Постоянный
Битрейт                                  : 384 Кбит/сек
Каналы                                   : 6 каналов
Расположение каналов                     : Front: L C R, Side: L R, LFE
Частота                                  : 48,0 КГц
Частота кадров                           : 31,250 кадров/сек (1536 spf)
Метод сжатия                             : С потерями
Размер потока                            : 254 Мбайт (3%)
Заголовок                                : MVO | Кармен Видео
Язык                                     : Russian
Default                                  : Да
Forced                                   : Нет
Аудио #2
Идентификатор                            : 3
Формат                                   : AC-3
Формат/Информация                        : Audio Coding 3
Расширение режима                        : CM (complete main)
Параметр Endianness формата              : Big
Идентификатор кодека                     : A_AC3
Продолжительность                        : 1 ч. 32 м.
Вид битрейта                             : Постоянный
Битрейт                                  : 384 Кбит/сек
Каналы                                   : 6 каналов
Расположение каналов                     : Front: L C R, Side: L R, LFE
Частота                                  : 48,0 КГц
Частота кадров                           : 31,250 кадров/сек (1536 spf)
Метод сжатия                             : С потерями
Размер потока                            : 254 Мбайт (3%)
Заголовок                                : Original | DVD
Язык                                     : English
Default                                  : Нет
Forced                                   : Нет
Аудио #3
Идентификатор                            : 4
Формат                                   : AC-3
Формат/Информация                        : Audio Coding 3
Расширение режима                        : CM (complete main)
Параметр Endianness формата              : Big
Идентификатор кодека                     : A_AC3
Продолжительность                        : 1 ч. 32 м.
Вид битрейта                             : Постоянный
Битрейт                                  : 192 Кбит/сек
Каналы                                   : 2 канала
Расположение каналов                     : Front: L R
Частота                                  : 48,0 КГц
Частота кадров                           : 31,250 кадров/сек (1536 spf)
Метод сжатия                             : С потерями
Размер потока                            : 127 Мбайт (2%)
Заголовок                                : Original | BD
Язык                                     : English
Default                                  : Нет
Forced                                   : Нет
Текст #1
Идентификатор                            : 5
Формат                                   : UTF-8
Идентификатор кодека                     : S_TEXT/UTF8
Идентификатор кодека/Информация          : UTF-8 Plain Text
Продолжительность                        : 1 ч. 31 м.
Битрейт                                  : 105 бит/сек
Count of elements                        : 1219
Размер потока                            : 70,8 Кбайт (0%)
Заголовок                                : DVD
Язык                                     : Russian
Default                                  : Нет
Forced                                   : Нет
Текст #2
Идентификатор                            : 6
Формат                                   : UTF-8
Идентификатор кодека                     : S_TEXT/UTF8
Идентификатор кодека/Информация          : UTF-8 Plain Text
Продолжительность                        : 1 ч. 31 м.
Битрейт                                  : 71 бит/сек
Count of elements                        : 1279
Размер потока                            : 47,4 Кбайт (0%)
Заголовок                                : Original | BD
Язык                                     : English
Default                                  : Нет
Forced                                   : Нет
Текст #3
Идентификатор                            : 7
Формат                                   : UTF-8
Идентификатор кодека                     : S_TEXT/UTF8
Идентификатор кодека/Информация          : UTF-8 Plain Text
Продолжительность                        : 1 ч. 31 м.
Битрейт                                  : 72 бит/сек
Count of elements                        : 1330
Размер потока                            : 48,5 Кбайт (0%)
Заголовок                                : Original | SDH | BD
Язык                                     : English
Default                                  : Нет
Forced                                   : Нет
Меню
00:00:00.000                             : :00:00:00.000
00:15:07.480                             : :00:15:07.480
00:25:27.960                             : :00:25:27.960
00:37:42.560                             : :00:37:42.560
00:48:41.800                             : :00:48:41.800
01:02:36.880                             : :01:02:36.880
01:14:14.760                             : :01:14:14.760
01:27:14.760                             : :01:27:14.760

Скриншоты

-

_________________
Показать сообщения:    

Текущее время: Сегодня 15:21

Часовой пояс: GMT



Вы не можете начинать темы
Вы не можете отвечать на сообщения
Вы не можете редактировать свои сообщения
Вы не можете удалять свои сообщения
Вы не можете голосовать в опросах
Вы не можете прикреплять файлы к сообщениям
Вы не можете скачивать файлы