Важное объявление!
У Нас Все раздачи мультитрекерные, при нуле пиров в релизах, можете смело вставать на закачку!
 
Автор Сообщение

HUNTER

Стаж:
4 года 4 месяца
Сообщений:
56822

Репутация: 101

[+] [-]
Вне форума [Профиль] [ЛС]

Номад: Начало / Nomad the Beginning
Страна: США
Жанр: фантастика, боевик
Год выпуска: 2013
Продолжительность: 01:24:41
Перевод: Профессиональный (многоголосый закадровый)
Cубтитры: нет
Оригинальная аудиодорожка: нет
Режиссер: Томас Диксон
В ролях: Клинт Гленн, Мария Асевес, Джошуа Дероше, Брантли Блэк, Джозиа Д. Ли, Винс Лозаньо, Дженнифер О’Делл, Chris DeMarco, Наташа Бласик, Алекс ДиЛемма
Описание: Люди из тайной организации, управляющей миром, проводят жуткий эксперимент: с помощью инопланетного гена, введенного человеку, они хотят создать расу рабов, которая будет беспрекословно подчиняться гуманоидам. Один из участников эксперимента выходит из повиновения и сбегает. Он хочет уничтожить главу организации, а помогает ему в этом некто Номад — его голос мужчина постоянно слышит в своей голове…
Сэмпл: http://multi-up.com/962495

Тип релиза: HDTV 1080i
Контейнер: MKV
Видео: MPEG4 (H264) 1920x1080 (16:9) 25 fps 6 060 Kbps
Аудио: AC3 2.0 ch 48 kHz 16 bit 448 Kbps

MediaInfo

General
Unique ID : 189820940971745810286948492053105456289 (0x8ECE2EF532B0CEC4B68412CF2299B4A1)
Complete name : D:\Nomad.nachalo.2013.HDTV.1080i.mkv
Format : Matroska
Format version : Version 4 / Version 2
File size : 3.93 GiB
Duration : 1h 24mn
Overall bit rate : 6 641 Kbps
Movie name : 26.03.2014 SharkN73
Encoded date : UTC 2014-03-26 17:24:12
Writing application : mkvmerge v6.8.0 ('Theme for Great Cities') 64bit built on Mar 2 2014 21:34:26
Writing library : libebml v1.3.0 + libmatroska v1.4.1
Video
ID : 1
Format : AVC
Format/Info : Advanced Video Codec
Format profile : High@L4.0
Format settings, CABAC : Yes
Format settings, ReFrames : 3 frames
Codec ID : V_MPEG4/ISO/AVC
Duration : 1h 24mn
Bit rate : 6 060 Kbps
Width : 1 920 pixels
Height : 1 080 pixels
Display aspect ratio : 16:9
Frame rate mode : Constant
Frame rate : 25.000 fps
Standard : Component
Color space : YUV
Chroma subsampling : 4:2:0
Bit depth : 8 bits
Scan type : Interlaced
Scan order : Top Field First
Bits/(Pixel*Frame) : 0.117
Stream size : 3.59 GiB (91%)
Language : English
Default : Yes
Forced : No
Color primaries : BT.709
Transfer characteristics : BT.709
Matrix coefficients : BT.709
Audio
ID : 2
Format : AC-3
Format/Info : Audio Coding 3
Mode extension : CM (complete main)
Format settings, Endianness : Big
Codec ID : A_AC3
Duration : 1h 24mn
Bit rate mode : Constant
Bit rate : 448 Kbps
Channel(s) : 6 channels
Channel(s)_Original : 2 channels
Channel positions : Front: L R
Sampling rate : 48.0 KHz
Bit depth : 16 bits
Compression mode : Lossy
Delay relative to video : 1ms
Stream size : 271 MiB (7%)
Language : Russian
Default : Yes
Forced : No

Скриншоты


_________________
Показать сообщения:    

Текущее время: Сегодня 21:37

Часовой пояс: GMT



Вы не можете начинать темы
Вы не можете отвечать на сообщения
Вы не можете редактировать свои сообщения
Вы не можете удалять свои сообщения
Вы не можете голосовать в опросах
Вы не можете прикреплять файлы к сообщениям
Вы не можете скачивать файлы