Важное объявление!
У Нас Все раздачи мультитрекерные, при нуле пиров в релизах, можете смело вставать на закачку!
 
Автор Сообщение

HUNTER

Стаж:
4 года 4 месяца
Сообщений:
56853

Репутация: 101

[+] [-]
Вне форума [Профиль] [ЛС]

-Ной
Noah

Год выпуска: 2014
Страна: США (Paramount Pictures, Regency Enterprises)
Жанр: Драма, Фэнтези
Продолжительность: 2:17:53
Перевод: Профессиональный дублированный
Режиссер: Даррен Аронофски / Darren Aronofsky-Роли исполняли (дублировали):

Noah - Рассел Кроу (Денис Беспалый)
Naameh - Дженнифер Коннелли (Рамиля Искандер)
Tubal-cain - Рэй Уинстон (Владимир Еремин)
Methuselah - Энтони Хопкинс (Рудольф Панков)
Ila - Эмма Уотсон (Наталья Терешкова)
Ham - Логан Лерман (Дмитрий Череватенко)
Shem - Дуглас Бут (Станислав Тикунов)
Samyaza, озвучка - Ник Нолти (Игорь Старосельцев)
Lamech - Мартон Чокаш (Всеволод Кузнецов)
Young Tubal-cain - Финн Уиттрок (Вадим Медведев)
Na'el - Мэдисон Девенпорт (Татьяна Ермилова)
-Описание: История отца, воина и спасителя Человечества и всего живого на Земле.

Знаете ли вы, что...:

  • В мае 2014 года Китай присоединился к растущему списку стран, где фильм запрещен к показу. Картина не попала в квоту на разрешенные зарубежные фильмы (34 картины в год), т. к. китайские цензоры не рекомендовали «Ноя» к просмотру по религиозным соображениям.
  • Даррен Аронофски совместно с Эри Хэнделом и канадским писателем Нико Хэнричоном (Niko Henrichon) занимался созданием графического романа ("Noah: For the Cruelty of Men» (2011)) по сценарию фильма.
  • Аронофски предлагал роль Ноя Кристиану Бэйлу и Майклу Фассбендеру, но они оба отказались.
  • Джулианна Мур рассматривалась на роль, которая в итоге досталась Дженнифер Коннелли.
  • Лиам Нисон, Лив Шрайбер и Вэл Килмер рассматривались на роль главного злодея.
  • Фильм начали снимать в июле 2012 года на полуострове Дирхолэй, в районе Рейкьявика Фоссвогур, на базальтовых колоннах Рейнисдрангар и в других местах Южной Исландии. Съёмки также проходили в Нью-Йорке, Голливуде и Вашингтоне, Миссисипи. Ноев ковчег был построен в Национальном историческом парке Плантинг Филдс Арборетум в Верхнем Бруклине, Нью-Йорк.
  • В марте 2014 года ряд мусульманских стран, таких как Катар, ОАЭ, Иордания и Египет, отказались выдать разрешение на трансляцию фильма в кинотеатрах. Цензоры запретили картину, так как мусульманская традиция не допускает изображений пророков и посланников Аллаха.
  • Студия Paramount намеревалась перемонтировать картину, чтобы не распугать потенциальных зрителей, однако в итоге в прокат все же решили выпустить режиссерскую версию фильма.
  • Рассел Кроу пытался с помощью твиттера уговорить папу римского Франциска посмотреть «Ноя», называя картину мощной, завораживающей и вызывающей резонанс. В итоге Франциск пригласил Рассела Кроу в Ватикан на короткую аудиенцию, в ходе которой благословил фильм «Ной». Как заявил Кроу, с учетом многочисленных споров вокруг фильма приглашение в Ватикан было большой честью.
  • Во время съемок фильма не использовалось ни одно настоящее животное.
  • Даррен Аронофски с детства был очарован персонажем Ноя, он представлял его себе как «мрачного, сложного персонажа, который испытывал глубокое чувство вины».
  • Сирша Ронан, Белла Хиткот и Дакота Фаннинг рассматривались на роль Илы. Несмотря на то, что Хиткот произвела сильное впечатление во время прослушивания, режиссер изначально видел в этой роли Дакоту Фаннинг, но она вынуждена была покинуть проект из-за несогласованности расписаний съемок. В итоге роль досталась Эмме Уотсон.

Ошибки в фильме (могут содержаться спойлеры)

  • Технологии, необходимые для производства тканей такой структуры, как у персонажей фильма, были недоступны еще в течение нескольких тысяч лет после времен Большого Потопа.
  • Во времена, когда происходят события фильма, не существовало технологий, позволявших выплавлять сталь такого качества и такого предназначения, как показано в фильме.
  • Ковчег выдержал удар миллионов тонн воды одновременно со всех сторон (что уже странно), но главный злодей легко прорубил в нем дыру одной рукой.
Премьера: 10 марта 2014 (27 марта 2014)
Релиз на Blu-Ray (DVD) (Россия): 29 июля 2014
Бюджет: $125 000 000
Кассовые сборы: $359 200 044

. .
-Качество: BDRip (by Ash61)
Контейнер: MKV
Формат 3D: Half OverUnder / Вертикальная анаморфная стереопара
Порядок ракурсов: левый ракурс первый
Видео кодек: x264
Аудио кодек: AC3-Видео: AVC / 23,976 fps / 1920х1080p / 10.2 Mbps
Аудио:
#1 - Русский / AC3 / 48 KHz / 5.1 ch / 640 Kbps (Дубляж - BD CEE)
#2 - Украинский / AC3 / 48 KHz / 2 ch / 192 Kbps (Дубляж - iTunes)
#3 - Английский / AC3 / 48 KHz / 5.1 ch / 640 Kbps (Original - BD 3D)
Субтитры: (SRT)
Вшитые (softsub):
#1 - Русские Форсированные (включены по умолчанию)
#2 - Русские Полные
#3 - Украинские Полные
#4 - English Full
#5 - English SDH
#6 - English SDH-Colored
Внешние (UTF-8):
#1 - Русские Форсированные (включены по умолчанию)

MediaInfo

General
Unique ID : 226856331834840317977676567768113436513 (0xAAAAF0B494E4207AA705BE0845A55761)
Complete name : E:\Noah(2014)3D-halfOU(Ash61)\Noah(2014)3D-halfOU(Ash61).mkv
Format : Matroska
Format version : Version 2
File size : 11.4 GiB
Duration : 2h 17mn
Overall bit rate : 11.9 Mbps
Movie name : Ной / Noah (2014) 3D
Encoded date : UTC 2014-07-28 15:26:24
Writing application : mkvmerge v5.8.0 ('No Sleep / Pillow') built on Sep 2 2012 15:37:04
Writing library : libebml v1.2.3 + libmatroska v1.3.0
Video
ID : 1
Format : AVC
Format/Info : Advanced Video Codec
Format profile : High@L4.1
Format settings, CABAC : Yes
Format settings, ReFrames : 4 frames
Codec ID : V_MPEG4/ISO/AVC
Duration : 2h 17mn
Bit rate : 10.2 Mbps
Width : 1 920 pixels
Height : 1 080 pixels
Display aspect ratio : 16:9
Frame rate mode : Constant
Frame rate : 23.976 fps
Color space : YUV
Chroma subsampling : 4:2:0
Bit depth : 8 bits
Scan type : Progressive
Bits/(Pixel*Frame) : 0.204
Stream size : 9.79 GiB (86%)
Title : BDRip by Ash61
Writing library : x264 core 138 r2358 9e941d1
Encoding settings : cabac=1 / ref=4 / deblock=1:-3:-3 / analyse=0x3:0x113 / me=umh / subme=10 / psy=1 / psy_rd=1.00:0.15 / mixed_ref=1 / me_range=32 / chroma_me=1 / trellis=2 / 8x8dct=1 / cqm=0 / deadzone=21,11 / fast_pskip=1 / chroma_qp_offset=-3 / threads=12 / lookahead_threads=3 / sliced_threads=0 / nr=0 / decimate=1 / interlaced=0 / bluray_compat=0 / constrained_intra=0 / bframes=11 / b_pyramid=2 / b_adapt=2 / b_bias=0 / direct=3 / weightb=1 / open_gop=0 / weightp=2 / keyint=250 / keyint_min=23 / scenecut=40 / intra_refresh=0 / rc_lookahead=60 / rc=crf / mbtree=1 / crf=18.0 / qcomp=0.70 / qpmin=0 / qpmax=69 / qpstep=4 / vbv_maxrate=40000 / vbv_bufsize=30000 / crf_max=0.0 / nal_hrd=none / frame-packing=4 / ip_ratio=1.40 / aq=1:0.70
Language : English
Default : Yes
Forced : No
Audio #1
ID : 2
Format : AC-3
Format/Info : Audio Coding 3
Mode extension : CM (complete main)
Format settings, Endianness : Big
Codec ID : A_AC3
Duration : 2h 17mn
Bit rate mode : Constant
Bit rate : 640 Kbps
Channel(s) : 6 channels
Channel positions : Front: L C R, Side: L R, LFE
Sampling rate : 48.0 KHz
Bit depth : 16 bits
Compression mode : Lossy
Stream size : 631 MiB (5%)
Title : Дубляж - BD CEE
Language : Russian
Default : Yes
Forced : No
Audio #2
ID : 3
Format : AC-3
Format/Info : Audio Coding 3
Mode extension : CM (complete main)
Format settings, Endianness : Big
Codec ID : A_AC3
Duration : 2h 17mn
Bit rate mode : Constant
Bit rate : 192 Kbps
Channel(s) : 2 channels
Channel positions : Front: L R
Sampling rate : 48.0 KHz
Bit depth : 16 bits
Compression mode : Lossy
Stream size : 189 MiB (2%)
Title : Дубляж - iTunes
Language : Ukrainian
Default : No
Forced : No
Audio #3
ID : 4
Format : AC-3
Format/Info : Audio Coding 3
Mode extension : CM (complete main)
Format settings, Endianness : Big
Codec ID : A_AC3
Duration : 2h 17mn
Bit rate mode : Constant
Bit rate : 640 Kbps
Channel(s) : 6 channels
Channel positions : Front: L C R, Side: L R, LFE
Sampling rate : 48.0 KHz
Bit depth : 16 bits
Compression mode : Lossy
Stream size : 631 MiB (5%)
Title : Original - BD 3D
Language : English
Default : No
Forced : No
Text #1
ID : 5
Format : UTF-8
Codec ID : S_TEXT/UTF8
Codec ID/Info : UTF-8 Plain Text
Title : Форсированные
Language : Russian
Default : Yes
Forced : No
Text #2
ID : 6
Format : UTF-8
Codec ID : S_TEXT/UTF8
Codec ID/Info : UTF-8 Plain Text
Title : Полные
Language : Russian
Default : No
Forced : No
Text #3
ID : 7
Format : UTF-8
Codec ID : S_TEXT/UTF8
Codec ID/Info : UTF-8 Plain Text
Title : Полные
Language : Ukrainian
Default : No
Forced : No
Text #4
ID : 8
Format : UTF-8
Codec ID : S_TEXT/UTF8
Codec ID/Info : UTF-8 Plain Text
Title : Full
Language : English
Default : No
Forced : No
Text #5
ID : 9
Format : UTF-8
Codec ID : S_TEXT/UTF8
Codec ID/Info : UTF-8 Plain Text
Title : SDH
Language : English
Default : No
Forced : No
Text #6
ID : 10
Format : UTF-8
Codec ID : S_TEXT/UTF8
Codec ID/Info : UTF-8 Plain Text
Title : SDH-Colored
Language : English
Default : No
Forced : No
Menu
00:00:00.000 : :1
00:04:48.955 : :2
00:08:37.267 : :3
00:12:23.034 : :4
00:18:43.080 : :5
00:23:25.487 : :6
00:32:06.424 : :7
00:37:27.203 : :8
00:42:50.735 : :9
00:54:35.647 : :10
01:01:14.963 : :11
01:03:28.596 : :12
01:09:33.795 : :13
01:19:18.337 : :14
01:21:56.537 : :15
01:29:12.347 : :16
01:34:02.053 : :17
01:40:27.355 : :18
01:49:23.098 : :19
01:55:57.826 : :20
02:00:37.230 : :21
02:11:32.676 : :22

Для оценки 3Д - Анимированные скрины













_________________
Показать сообщения:    

Текущее время: Сегодня 15:12

Часовой пояс: GMT



Вы не можете начинать темы
Вы не можете отвечать на сообщения
Вы не можете редактировать свои сообщения
Вы не можете удалять свои сообщения
Вы не можете голосовать в опросах
Вы не можете прикреплять файлы к сообщениям
Вы не можете скачивать файлы
Наши партнеры: интернет магазин Ивановского трикотажа textilla.ru