Важное объявление!
У Нас Все раздачи мультитрекерные, при нуле пиров в релизах, можете смело вставать на закачку!
 
Автор Сообщение

HUNTER

Стаж:
4 года 4 месяца
Сообщений:
56808

Репутация: 101

[+] [-]
Вне форума [Профиль] [ЛС]

Ной / Noah
Страна: США
Жанр: драма, приключения, фэнтези
Год выпуска: 2014
Продолжительность: 02:17:53
Перевод#1: Профессиональный (дублированный) | iTunes
Перевод#2: Одноголосый закадровый, Д. Есарев (отдельно)
Cубтитры: русские (iTunes, notabenoid), английские
Оригинальная аудиодорожка: английский
Режиссер: Даррен Аронофски / Darren Aronofsky
В ролях: Расселл Кроу, Дженнифер Коннелли, Рэй Уинстон, Энтони Хопкинс, Эмма Уотсон, Логан Лерман, Дуглас Бут, Ник Нолти, Марк Марголис, Кевин Дюран, Лео МакХью Кэрролл, Мартон Чокаш
Описание: История отца, воина и спасителя Человечества и всего живого на Земле

Тип релиза: BDRip 720p (от СHD) | sample
Контейнер: MKV
Видео кодек: x264
Видео: AVC 1280x694 (1.85:1), 23.976 fps, ~5260 Kbps, 0.25 bit/pixel
Аудио #1: Russian AC3 6ch 48kHz 384Kbps | Dub iTunes
Аудио #2: English AC3 6ch 48kHz 640Kbps | Original
Аудио #3: Russian AC3 6ch 48kHz 448Kbps | VO Есарев (отдельным файлом)
Формат субтитров: softsub (SRT)
Главы: есть

MediaInfo

General
Complete name : E:\...\Noah.2014.720p.BluRay.x264.Rus.iTunes.Eng-CHD.mkv
Format : Matroska
Format version : Version 2
File size : 6.04 GiB
Duration : 2h 17mn
Overall bit rate : 6 275 Kbps
Movie name : Noah.2014.720p.BluRay.x264.Rus.iTunes.Eng-CHD
Encoded date : UTC 2014-07-15 08:18:49
Writing application : mkvmerge v7.0.0 ('Where We Going') 64bit built on Jun 9 2014 15:16:27
Writing library : libebml v1.3.0 + libmatroska v1.4.1
Attachment : Yes
Video
ID : 1
Format : AVC
Format/Info : Advanced Video Codec
Format profile : High@L4.1
Format settings, CABAC : Yes
Format settings, ReFrames : 8 frames
Codec ID : V_MPEG4/ISO/AVC
Duration : 2h 17mn
Bit rate : 5 261 Kbps
Width : 1 280 pixels
Height : 694 pixels
Display aspect ratio : 1.85:1
Frame rate mode : Constant
Frame rate : 23.976 fps
Color space : YUV
Chroma subsampling : 4:2:0
Bit depth : 8 bits
Scan type : Progressive
Bits/(Pixel*Frame) : 0.247
Stream size : 4.94 GiB (82%)
Title : Noah (2014)
Writing library : x264 core 142 r2431 ac76440
Encoding settings : cabac=1 / ref=8 / deblock=1:-3:-3 / analyse=0x3:0x113 / me=umh / subme=10 / psy=1 / psy_rd=1.05:0.10 / mixed_ref=1 / me_range=32 / chroma_me=1 / trellis=2 / 8x8dct=1 / cqm=0 / deadzone=21,11 / fast_pskip=0 / chroma_qp_offset=-2 / threads=18 / lookahead_threads=1 / sliced_threads=0 / nr=0 / decimate=1 / interlaced=0 / bluray_compat=0 / constrained_intra=0 / bframes=6 / b_pyramid=2 / b_adapt=2 / b_bias=0 / direct=3 / weightb=1 / open_gop=0 / weightp=2 / keyint=250 / keyint_min=23 / scenecut=40 / intra_refresh=0 / rc=2pass / mbtree=0 / bitrate=5261 / ratetol=1.0 / qcomp=0.70 / qpmin=0 / qpmax=69 / qpstep=4 / cplxblur=20.0 / qblur=0.5 / ip_ratio=1.40 / pb_ratio=1.30 / aq=2:0.90
Language : English
Default : Yes
Forced : No
Audio #1
ID : 2
Format : AC-3
Format/Info : Audio Coding 3
Mode extension : CM (complete main)
Format settings, Endianness : Big
Codec ID : A_AC3
Duration : 2h 17mn
Bit rate mode : Constant
Bit rate : 384 Kbps
Channel(s) : 6 channels
Channel positions : Front: L C R, Side: L R, LFE
Sampling rate : 48.0 KHz
Bit depth : 16 bits
Compression mode : Lossy
Stream size : 379 MiB (6%)
Title : Dub iTunes
Language : Russian
Default : Yes
Forced : No
Audio #2
ID : 3
Format : AC-3
Format/Info : Audio Coding 3
Mode extension : CM (complete main)
Format settings, Endianness : Big
Codec ID : A_AC3
Duration : 2h 17mn
Bit rate mode : Constant
Bit rate : 640 Kbps
Channel(s) : 6 channels
Channel positions : Front: L C R, Side: L R, LFE
Sampling rate : 48.0 KHz
Bit depth : 16 bits
Compression mode : Lossy
Stream size : 631 MiB (10%)
Title : Original
Language : English
Default : No
Forced : No
Text #1
ID : 4
Format : UTF-8
Codec ID : S_TEXT/UTF8
Codec ID/Info : UTF-8 Plain Text
Title : Forced iTunes
Language : Russian
Default : Yes
Forced : No
Text #2
ID : 5
Format : UTF-8
Codec ID : S_TEXT/UTF8
Codec ID/Info : UTF-8 Plain Text
Title : iTunes
Language : Russian
Default : No
Forced : No
Text #3
ID : 6
Format : UTF-8
Codec ID : S_TEXT/UTF8
Codec ID/Info : UTF-8 Plain Text
Title : notabenoid
Language : Russian
Default : No
Forced : No
Text #4
ID : 7
Format : UTF-8
Codec ID : S_TEXT/UTF8
Codec ID/Info : UTF-8 Plain Text
Language : English
Default : No
Forced : No
Text #5
ID : 8
Format : UTF-8
Codec ID : S_TEXT/UTF8
Codec ID/Info : UTF-8 Plain Text
Title : SDH
Language : English
Default : No
Forced : No
Text #6
ID : 9
Format : UTF-8
Codec ID : S_TEXT/UTF8
Codec ID/Info : UTF-8 Plain Text
Title : SDH (Colored)
Language : English
Default : No
Forced : No
Menu
00:00:00.000 : en:00:00:00.000
00:04:48.955 : en:00:04:48.955
00:08:37.267 : en:00:08:37.267
00:12:23.034 : en:00:12:23.034
00:18:43.080 : en:00:18:43.080
00:23:25.487 : en:00:23:25.487
00:32:06.424 : en:00:32:06.424
00:37:27.203 : en:00:37:27.203
00:42:50.735 : en:00:42:50.735
00:54:35.647 : en:00:54:35.647
01:01:14.963 : en:01:01:14.963
01:03:28.596 : en:01:03:28.596
01:09:33.795 : en:01:09:33.795
01:19:18.337 : en:01:19:18.337
01:21:56.537 : en:01:21:56.537
01:29:12.347 : en:01:29:12.347
01:34:02.053 : en:01:34:02.053
01:40:27.355 : en:01:40:27.355
01:49:23.098 : en:01:49:23.098
01:55:57.826 : en:01:55:57.826
02:00:37.230 : en:02:00:37.230
02:11:32.676 : en:02:11:32.676

Скриншоты

source vs CHD





* Бюджетка вместо SD, рип приемлемый, сравнения прилагаются

_________________
Показать сообщения:    

Текущее время: Сегодня 13:33

Часовой пояс: GMT



Вы не можете начинать темы
Вы не можете отвечать на сообщения
Вы не можете редактировать свои сообщения
Вы не можете удалять свои сообщения
Вы не можете голосовать в опросах
Вы не можете прикреплять файлы к сообщениям
Вы не можете скачивать файлы