Важное объявление!
У Нас Все раздачи мультитрекерные, при нуле пиров в релизах, можете смело вставать на закачку!
 
Автор Сообщение

HUNTER

Стаж:
4 года 4 месяца
Сообщений:
56798

Репутация: 101

[+] [-]
Вне форума [Профиль] [ЛС]

Ной / Noah

-
-Страна: США
Студия: Paramount Pictures, Disruption Entertainment, New Regency Pictures, Protozoa Pictures
Жанр: драма, приключения, фэнтези
Год выпуска: 2014
Продолжительность: 02:17:53--Перевод 1: Профессиональный (дублированный) Blu-ray
Перевод 2: Одноголосый закадровый lord666
Перевод 3: Одноголосый закадровый Д. Есарев
Cубтитры: русские (forced, full), украинский, английские (full, SDH, SDH-COLORED)
Оригинальная аудиодорожка: английский--Режиссер: Даррен Аронофски / Darren Aronofsky
В ролях: Расселл Кроу, Эмма Уотсон, Дженнифер Коннелли, Логан Лерман, Дуглас Бут, Энтони Хопкинс, Рэй Уинстон, Кевин Дюран, Дакота Гойо, Ник Нолт, Сами Гейл, Бэрри Слоун, Мартон Чокаш, Марк Марголис, Фрэнк Лангелла, Мэдисон Девенпорт, Финн Уиттрок, Дон Харви, Софи Нювейде, Рэймонд Мэмрак--Описание: История отца, воина и спасителя Человечества и всего живого на Земле.--imdb | kinopoisk | Сэмпл--Тип релиза: BDRemux 1080p [Noah 2014 1080p CEE Blu-ray AVC DTS-HD MA 7.1 HDCLUB]
Контейнер: MKV
Видео: MPEG-4 AVC / 24518 kbps / 1920x1080 / 23,976 fps / 16:9 / High Profile 4.1
Аудио 1: Russian AC3 / 5.1 / 48 kHz / 640 kbps / 16 bits |Dub, Blu-ray|
Аудио 2: Russian AC3 / 5.1 / 48 kHz / 448 kbps / 16 bits |lord666|
Аудио 3: Ukrainian AC3 / 2.0 / 48 kHz / 192 kbps / 16 bits |Dub, iTunes Russia|
Аудио 4: Russian DTS-HD Master Audio / 7.1 / 48 kHz / 5138 kbps / 24 bits (DTS Core: 5.1 / 48 kHz / 1509 kbps / 24 bits) |Д. Есарев|
Аудио 5: English DTS-HD Master Audio / 7.1 / 48 kHz / 5149 kbps / 24 bits (DTS Core: 5.1 / 48 kHz / 1509 kbps / 24 bits) |original|
Аудио 6: English AC3 / 5.1 / 48 kHz / 640 kbps / 16 bits |Descriptive|
Формат субтитров: softsub [SRT]

MediaInfo

Код:
бщее
Уникальный идентификатор                 : 227995962186024529097912662587073692605 (0xAB866CD1DE6CB46584690D9733D503BD)
Полное имя                               : G:\HD\Ной.2014.Blu-Ray.Remux.(1080p).mkv
Формат                                   : Matroska
Версия формата                           : Version 4 / Version 2
Размер файла                             : 35,1 Гбайт
Продолжительность                        : 2 ч. 17 м.
Режим общего битрейта                    : Переменный
Общий поток                              : 36,5 Мбит/сек
Дата кодирования                         : UTC 2014-07-28 13:09:49
Программа кодирования                    : mkvmerge v7.0.0 ('Where We Going') 64bit built on Jun  9 2014 15:16:27
Библиотека кодирования                   : libebml v1.3.0 + libmatroska v1.4.1
Attachment                               : Yes
Видео
Идентификатор                            : 1
Формат                                   : AVC
Формат/Информация                        : Advanced Video Codec
Профиль формата                          : High@L4.1
Параметр CABAC формата                   : Да
Параметр ReFrames формата                : 4 кадра
Идентификатор кодека                     : V_MPEG4/ISO/AVC
Продолжительность                        : 2 ч. 17 м.
Вид битрейта                             : Переменный
Максимальный битрейт                     : 33,0 Мбит/сек
Ширина                                   : 1920 пикселей
Высота                                   : 1080 пикселей
Соотношение сторон                       : 16:9
Режим частоты кадров                     : Постоянный
Частота кадров                           : 23,976 кадра/сек
Цветовое пространство                    : YUV
Субдискретизация насыщенности            : 4:2:0
Битовая глубина                          : 8 бит
Тип развёртки                            : Прогрессивная
Default                                  : Да
Forced                                   : Нет
Аудио #1
Идентификатор                            : 2
Формат                                   : AC-3
Формат/Информация                        : Audio Coding 3
Расширение режима                        : CM (complete main)
Параметр Endianness формата              : Big
Идентификатор кодека                     : A_AC3
Продолжительность                        : 2 ч. 17 м.
Вид битрейта                             : Постоянный
Битрейт                                  : 640 Кбит/сек
Каналы                                   : 6 каналов
Расположение каналов                     : Front: L C R, Side: L R, LFE
Частота                                  : 48,0 КГц
Битовая глубина                          : 16 бит
Метод сжатия                             : С потерями
Размер потока                            : 631 Мбайт (2%)
Заголовок                                : Dub, Blu-ray
Язык                                     : Russian
Default                                  : Да
Forced                                   : Нет
Аудио #2
Идентификатор                            : 3
Формат                                   : AC-3
Формат/Информация                        : Audio Coding 3
Расширение режима                        : CM (complete main)
Параметр Endianness формата              : Big
Идентификатор кодека                     : A_AC3
Продолжительность                        : 2 ч. 17 м.
Вид битрейта                             : Постоянный
Битрейт                                  : 448 Кбит/сек
Каналы                                   : 6 каналов
Расположение каналов                     : Front: L C R, Side: L R, LFE
Частота                                  : 48,0 КГц
Битовая глубина                          : 16 бит
Метод сжатия                             : С потерями
Размер потока                            : 442 Мбайт (1%)
Заголовок                                : lord666
Язык                                     : Russian
Default                                  : Нет
Forced                                   : Нет
Аудио #3
Идентификатор                            : 4
Формат                                   : AC-3
Формат/Информация                        : Audio Coding 3
Расширение режима                        : CM (complete main)
Параметр Endianness формата              : Big
Идентификатор кодека                     : A_AC3
Продолжительность                        : 2 ч. 17 м.
Вид битрейта                             : Постоянный
Битрейт                                  : 192 Кбит/сек
Каналы                                   : 2 канала
Расположение каналов                     : Front: L R
Частота                                  : 48,0 КГц
Битовая глубина                          : 16 бит
Метод сжатия                             : С потерями
Размер потока                            : 189 Мбайт (1%)
Заголовок                                : Dub, iTunes Russia
Язык                                     : Ukrainian
Default                                  : Нет
Forced                                   : Нет
Аудио #4
Идентификатор                            : 5
Формат                                   : DTS
Формат/Информация                        : Digital Theater Systems
Профиль формата                          : MA / Core
Режим                                    : 16
Параметр Endianness формата              : Big
Идентификатор кодека                     : A_DTS
Продолжительность                        : 2 ч. 17 м.
Вид битрейта                             : Переменный
Битрейт                                  : Неизвестно / 1509 Кбит/сек
Каналы                                   : 8 каналов / 6 каналов
Расположение каналов                     : Front: L C R, Side: L R, Back: L R, LFE / Front: L C R, Side: L R, LFE
Частота                                  : 48,0 КГц
Битовая глубина                          : 24 бит
Метод сжатия                             : Без потерь / Lossy
Заголовок                                : Д. Есарев
Язык                                     : Russian
Default                                  : Нет
Forced                                   : Нет
Аудио #5
Идентификатор                            : 6
Формат                                   : DTS
Формат/Информация                        : Digital Theater Systems
Профиль формата                          : MA / Core
Режим                                    : 16
Параметр Endianness формата              : Big
Идентификатор кодека                     : A_DTS
Продолжительность                        : 2 ч. 17 м.
Вид битрейта                             : Переменный
Битрейт                                  : Неизвестно / 1509 Кбит/сек
Каналы                                   : 8 каналов / 6 каналов
Расположение каналов                     : Front: L C R, Side: L R, Back: L R, LFE / Front: L C R, Side: L R, LFE
Частота                                  : 48,0 КГц
Битовая глубина                          : 24 бит
Метод сжатия                             : Без потерь / Lossy
Язык                                     : English
Default                                  : Нет
Forced                                   : Нет
Аудио #6
Идентификатор                            : 7
Формат                                   : AC-3
Формат/Информация                        : Audio Coding 3
Расширение режима                        : CM (complete main)
Параметр Endianness формата              : Big
Идентификатор кодека                     : A_AC3
Продолжительность                        : 2 ч. 17 м.
Вид битрейта                             : Постоянный
Битрейт                                  : 640 Кбит/сек
Каналы                                   : 6 каналов
Расположение каналов                     : Front: L C R, Side: L R, LFE
Частота                                  : 48,0 КГц
Битовая глубина                          : 16 бит
Метод сжатия                             : С потерями
Размер потока                            : 631 Мбайт (2%)
Заголовок                                : Descriptive
Язык                                     : English
Default                                  : Нет
Forced                                   : Нет
Текст #1
Идентификатор                            : 8
Формат                                   : UTF-8
Идентификатор кодека                     : S_TEXT/UTF8
Идентификатор кодека/Информация          : UTF-8 Plain Text
Заголовок                                : forced
Язык                                     : Russian
Default                                  : Да
Forced                                   : Нет
Текст #2
Идентификатор                            : 9
Формат                                   : UTF-8
Идентификатор кодека                     : S_TEXT/UTF8
Идентификатор кодека/Информация          : UTF-8 Plain Text
Заголовок                                : full
Язык                                     : Russian
Default                                  : Нет
Forced                                   : Нет
Текст #3
Идентификатор                            : 10
Формат                                   : UTF-8
Идентификатор кодека                     : S_TEXT/UTF8
Идентификатор кодека/Информация          : UTF-8 Plain Text
Заголовок                                : notabenoid
Язык                                     : Russian
Default                                  : Нет
Forced                                   : Нет
Текст #4
Идентификатор                            : 11
Формат                                   : UTF-8
Идентификатор кодека                     : S_TEXT/UTF8
Идентификатор кодека/Информация          : UTF-8 Plain Text
Язык                                     : Ukrainian
Default                                  : Нет
Forced                                   : Нет
Текст #5
Идентификатор                            : 12
Формат                                   : UTF-8
Идентификатор кодека                     : S_TEXT/UTF8
Идентификатор кодека/Информация          : UTF-8 Plain Text
Заголовок                                : full
Язык                                     : English
Default                                  : Нет
Forced                                   : Нет
Текст #6
Идентификатор                            : 13
Формат                                   : UTF-8
Идентификатор кодека                     : S_TEXT/UTF8
Идентификатор кодека/Информация          : UTF-8 Plain Text
Заголовок                                : SDH
Язык                                     : English
Default                                  : Нет
Forced                                   : Нет
Текст #7
Идентификатор                            : 14
Формат                                   : UTF-8
Идентификатор кодека                     : S_TEXT/UTF8
Идентификатор кодека/Информация          : UTF-8 Plain Text
Заголовок                                : SDH-COLORED
Язык                                     : English
Default                                  : Нет
Forced                                   : Нет
Меню
00:00:00.000                             : :Chapter 01
00:04:48.955                             : :Chapter 02
00:08:37.266                             : :Chapter 03
00:12:23.033                             : :Chapter 04
00:18:43.080                             : :Chapter 05
00:23:25.487                             : :Chapter 06
00:32:06.424                             : :Chapter 07
00:37:27.203                             : :Chapter 08
00:42:50.734                             : :Chapter 09
00:54:35.647                             : :Chapter 10
01:01:14.962                             : :Chapter 11
01:03:28.596                             : :Chapter 12
01:09:33.794                             : :Chapter 13
01:19:18.336                             : :Chapter 14
01:21:56.536                             : :Chapter 15
01:29:12.347                             : :Chapter 16
01:34:02.053                             : :Chapter 17
01:40:27.354                             : :Chapter 18
01:49:23.098                             : :Chapter 19
01:55:57.825                             : :Chapter 20
02:00:37.230                             : :Chapter 21
02:11:32.676                             : :Chapter 22

Скриншоты


Дополнительно

Цитата:
Цитата:

За русский звук и сабы спасибо HDCLUB
Цитата:
Цитата:

За дорогу №4 спасибо Прагматик
Перевод Дмитрия Есарева доступен благодаря пользователям Переулка Переводмана: будулайроманов, mihaildns, dikii, mihey10, Start.Point, Прохожий, Loki1982.
Работа со звуком - Прагматик

_________________
Показать сообщения:    

Текущее время: Сегодня 00:51

Часовой пояс: GMT



Вы не можете начинать темы
Вы не можете отвечать на сообщения
Вы не можете редактировать свои сообщения
Вы не можете удалять свои сообщения
Вы не можете голосовать в опросах
Вы не можете прикреплять файлы к сообщениям
Вы не можете скачивать файлы