Важное объявление!
У Нас Все раздачи мультитрекерные, при нуле пиров в релизах, можете смело вставать на закачку!
 
Автор Сообщение

HUNTER

Стаж:
4 года 4 месяца
Сообщений:
56798

Репутация: 101

[+] [-]
Вне форума [Профиль] [ЛС]

Новый Год на войне
Год выпуска: 2011
Страна: Россия
Жанр: Документальный
Продолжительность: 00:33:14
Перевод: Не требуется
Русские субтитры: нет
Режиссер: Виталий Янов , Александр Дзюбло
Cценарий: Анна Шурыгина
Описание: Фильм рассказывает о том, как праздновали Новый год во время Великой Отечественной войны, в частности, в блокадном Ленинграде и на фронте. Это человеческие истории, интервью очевидцев и рассказ о том, как люди в тяжелые военные годы находили в себе силы просто жить и надеяться на Победу!
качество: TVRip
формат: AVI
Видео: XviD , 720x528 , 4:3 , 1106 Кбит/сек , 25,000 кадров/сек
Аудио: AC-3 , 192 Кбит/сек , 48,0 КГц , 2 канала

MediaInfo

Общее
Полное имя : Новый Год на войне.avi
Формат : AVI
Формат/Информация : Audio Video Interleave
Размер файла : 311 Мбайт
Продолжительность : 33 м.
Общий поток : 1308 Кбит/сек
Программа кодирования : VirtualDubMod 1.5.10.2 (build 2540/release)
Библиотека кодирования : VirtualDubMod build 2540/release
Видео
Идентификатор : 0
Формат : MPEG-4 Visual
Профиль формата : Advanced Simple@L5
Параметр BVOP формата : Да
Параметр QPel формата : Нет
Параметр GMC формата : Без точки перехода
Параметр матрицы формата : Default (H.263)
Идентификатор кодека : XVID
Идентификатор кодека/Подсказка : XviD
Продолжительность : 33 м.
Битрейт : 1106 Кбит/сек
Ширина : 720 пикселей
Высота : 528 пикселей
Соотношение сторон : 4:3
Частота кадров : 25,000 кадров/сек
Цветовое пространство : YUV
Субдискретизация насыщенности : 4:2:0
Битовая глубина : 8 бит
Тип развёртки : Прогрессивная
Метод сжатия : С потерями
Бит/(Пиксели*Кадры) : 0.116
Размер потока : 263 Мбайт (85%)
Библиотека кодирования : XviD 1.2.1 (UTC 2008-12-04)
Аудио
Идентификатор : 1
Формат : AC-3
Формат/Информация : Audio Coding 3
Расширение режима : CM (complete main)
Параметр Endianness формата : Big
Идентификатор кодека : 2000
Продолжительность : 33 м.
Вид битрейта : Постоянный
Битрейт : 192 Кбит/сек
Каналы : 2 канала
Расположение каналов : Front: L R
Частота : 48,0 КГц
Битовая глубина : 16 бит
Метод сжатия : С потерями
Размер потока : 45,6 Мбайт (15%)
Выравнивание : Разделение по промежуткам
Продолжительность промежутка : 40 мс. (1,00 видеокадр)
Время предзагрузки промежутка : 500 мс.

Скриншоты


_________________

дежурный_по_апрелю

Стаж:
4 года 2 месяца
Сообщений:
45

Репутация: 11

[+] [-]
Вне форума [Профиль] [ЛС]

Спасибо

_________________

Что наша жизнь - игра, Соло... И не прожить ее, не сыграть без обмана и фальши. Но ИГРАТЬ нужно... bu
Показать сообщения:    

Текущее время: Сегодня 07:32

Часовой пояс: GMT



Вы не можете начинать темы
Вы не можете отвечать на сообщения
Вы не можете редактировать свои сообщения
Вы не можете удалять свои сообщения
Вы не можете голосовать в опросах
Вы не можете прикреплять файлы к сообщениям
Вы не можете скачивать файлы