Важное объявление!
У Нас Все раздачи мультитрекерные, при нуле пиров в релизах, можете смело вставать на закачку!
 
Автор Сообщение

HUNTER

Стаж:
4 года 4 месяца
Сообщений:
56722

Репутация: 101

[+] [-]
Вне форума [Профиль] [ЛС]

Новый взгляд на старую Луну / New Look at the Old Moon
Год выпуска: 1979
Страна: США
Жанр: научно-популярный
Продолжительность: 00:28:20
Перевод: Субтитры
Русские субтитры: есть
Описание: Спустя 10 лет после первой посадки на Луну ученые НАСА собрались обсудить итоги изучения спутника Земли.
качество: VHSRip
формат: MKV
Видео: H264 576x432 23.976fps 552kbps
Аудио: AC3 48000Hz mono 192kbps

MediaInfo

GeneralUnique ID : 216089536741228833583120690187360573650 (0xA29154B8FFE5A5718435FD7088DC98D2)Complete name : C:\Video\New Look at the Old Moon.mkvFormat : MatroskaFormat version : Version 4 / Version 2File size : 149 MiBDuration : 28mn 19sOverall bit rate : 744 KbpsEncoded date : UTC 2013-07-25 08:41:33Writing application : mkvmerge v6.2.0 ('Promised Land') built on Apr 28 2013 12:22:01Writing library : libebml v1.3.0 + libmatroska v1.4.0
VideoID : 3Format : AVCFormat/Info : Advanced Video CodecFormat profile : Main@L3.0Format settings, CABAC : YesFormat settings, ReFrames : 4 framesCodec ID : V_MPEG4/ISO/AVCDuration : 28mn 19sBit rate : 552 KbpsWidth : 576 pixelsHeight : 432 pixelsDisplay aspect ratio : 4:3Frame rate mode : ConstantFrame rate : 23.976 fpsColor space : YUVChroma subsampling : 4:2:0Bit depth : 8 bitsScan type : ProgressiveBits/(Pixel*Frame) : 0.088Stream size : 107 MiB (72%)Writing library : x264 core 125 r2208 d9d2288Encoding settings : cabac=1 / ref=1 / deblock=1:-1:-1 / analyse=0x1:0x111 / me=hex / subme=2 / psy=1 / psy_rd=1.00:0.15 / mixed_ref=0 / me_range=16 / chroma_me=1 / trellis=0 / 8x8dct=0 / cqm=0 / deadzone=21,11 / fast_pskip=1 / chroma_qp_offset=0 / threads=3 / lookahead_threads=1 / sliced_threads=0 / nr=0 / decimate=1 / interlaced=0 / bluray_compat=0 / constrained_intra=0 / bframes=3 / b_pyramid=2 / b_adapt=1 / b_bias=0 / direct=1 / weightb=1 / open_gop=0 / weightp=1 / keyint=250 / keyint_min=23 / scenecut=40 / intra_refresh=0 / rc_lookahead=10 / rc=crf / mbtree=1 / crf=24.0 / qcomp=0.60 / qpmin=0 / qpmax=69 / qpstep=4 / ip_ratio=1.40 / aq=1:1.00Language : EnglishDefault : YesForced : No
AudioID : 1Format : AC-3Format/Info : Audio Coding 3Mode extension : CM (complete main)Format settings, Endianness : BigCodec ID : A_AC3Duration : 28mn 19sBit rate mode : ConstantBit rate : 192 KbpsChannel(s) : 1 channelChannel positions : Front: CSampling rate : 48.0 KHzBit depth : 16 bitsCompression mode : LossyStream size : 38.9 MiB (26%)Default : YesForced : No
TextID : 2Format : UTF-8Codec ID : S_TEXT/UTF8Codec ID/Info : UTF-8 Plain TextDefault : YesForced : No

Скриншоты

пример субтитров

1
00:00:10,000 --> 00:00:11,999
Каждый год с 1970-х
2
00:00:12,000 --> 00:00:15,999
ведущие ученые со всего мира
собираются в Хьюстоне
3
00:00:16,000 --> 00:00:19,999
в Космическом центре Джонсона НАСА и
институте Луны и планет,
4
00:00:20,000 --> 00:00:22,999
чтобы обменяться идеями и информацией.
5
00:00:23,000 --> 00:00:26,999
Конференция 1979 года отмечает
особый юбилей.
6
00:00:27,000 --> 00:00:31,999
Это 10-я годовщина высадки
первого Аполлона на Луну.
7
00:00:32,000 --> 00:00:33,999
В космических науках,
8
00:00:34,000 --> 00:00:36,999
где обсуждают столетия и тысячелетия,
9
00:00:37,000 --> 00:00:40,999
10 лет просто миг.
10
00:00:41,000 --> 00:00:45,999
Хотя в этот короткий промежуток времени
здесь сегодня свидетели почти полного
11
00:00:46,000 --> 00:00:51,999
переворота в своих соответствующих
научных областях. Можно сказать, что они испытали
12
00:00:52,000 --> 00:00:54,999
революцию в науке о Луне и планетах.
13
00:00:55,000 --> 00:00:59,999
И это больше, чем просто сообщение, когда вы
рассуждаете, как далеко мы ушли за одно
14
00:01:00,000 --> 00:01:01,999
десятилетие.
15
00:01:37,000 --> 00:01:38,999
До эпохи Аполлона
16
00:01:39,000 --> 00:01:42,999
ученые, кто хотел узнать больше
о создании и развитии
17
00:01:43,000 --> 00:01:43,999
Солнечной системы,
18
00:01:44,000 --> 00:01:46,999
не могли много работать
19
00:01:47,000 --> 00:01:48,999
по всей Солнечной системе,
20
00:01:49,000 --> 00:01:53,999
они имели только два источника
материалов для прямых анализов:
21
00:01:54,000 --> 00:01:57,999
метеориты, которые падали на Землю
из дальнего космоса,
22
00:01:58,000 --> 00:02:07,999
и камни и почвы на Земле.

_________________
Показать сообщения:    

Текущее время: Сегодня 14:58

Часовой пояс: GMT



Вы не можете начинать темы
Вы не можете отвечать на сообщения
Вы не можете редактировать свои сообщения
Вы не можете удалять свои сообщения
Вы не можете голосовать в опросах
Вы не можете прикреплять файлы к сообщениям
Вы не можете скачивать файлы