Важное объявление!
У Нас Все раздачи мультитрекерные, при нуле пиров в релизах, можете смело вставать на закачку!
 
Автор Сообщение

димитри37

Стаж:
3 года 9 месяцев
Сообщений:
1237

Репутация: 127

[+] [-]
Вне форума [Профиль] [ЛС]

Новые амазонки / Сексмиссия / Seksmisja / Sexmission
Год выпуска: 1984
Страна: Польша
Жанр: комедия, фантастика
Продолжительность: 01:55:36
Перевод: профессиональный (многолосый закадровый) | Мастер Тэйп
Русские субтитры: есть
Режиссер: Юлиуш Махульский / Juliusz Machulski
В ролях: Ольгерд Лукашевич, Ежи Штур, Божена Стрыйкувна, Богуслава Павелец, Ханна Станкувна, Беата Тышкевич, Рышарда Ханин, Барбара Людвижанка, Мирослава Мархелюк, Ханна Микуць
Описание: Альберт и Максимилиан соглашаются стать участниками эксперимента профессора Куппельвайзера: они, двое молодых мужчин лет 30-ти, в интересах науки должны быть заморожены сроком на 3 года. Однако за время, проведенное ими в специальных капсулах, на Земле многое изменилось, и потому Альбертика с Максом разморозили не через три года, а через полвека с лишним. В 2044 году. Когда «вымерли» все мужчины, и «других самцов», кроме парочки размороженных, больше нигде не осталось. «Амазонки 21-го века» живут в глубоком подземелье, благополучно разрешив проблему размножения без оплодотворения, и не нуждаются в присутствии особей мужского пола. С риском для собственной жизни Альберт и Макс вынуждены приступить к выполнению «сексмиссии»…

Качество: HDTVRip 720p
Формат: MKV
Видеокодек: AVC, x264 L4.1
Аудиокодек: AC3
Видео: 1280x720p; 25 fps; 4200 Kbps
Аудио #1: Русский; AC3; 6 Ch; 48.0 KHz; 384 Kbps | MVO (Мастер Тэйп)
Аудио #2: Польский; AC3; 6 Ch; 48.0 KHz; 448 Kbps | Оригинал
Субтитры #1: Русские; SRT UTF-8
Субтитры #2: Английские; SRT UTF-8

Скриншоты




МедиаИнфо

General
Unique ID : 208620247161597249439518836140388088291 (0x9CF2CC505F8E0BC09CA66CF4379379E3)
Complete name : E:\MyRazd\Seksmisja.1984.HDTVRip.720p.mkv
Format : Matroska
Format version : Version 2
File size : 4.08 GiB
Duration : 1h 55mn
Overall bit rate : 5 050 Kbps
Movie name : Seksmisja.1984.HDTVRip.720p .mkv
Encoded date : UTC 2012-05-03 04:25:21
Writing application : mkvmerge v5.4.0 ('Piper') built on Mar 10 2012 13:34:39
Writing library : libebml v1.2.3 + libmatroska v1.3.0
Video
ID : 1
Format : AVC
Format/Info : Advanced Video Codec
Format profile : High@L4.1
Format settings, CABAC : Yes
Format settings, ReFrames : 5 frames
Codec ID : V_MPEG4/ISO/AVC
Duration : 1h 55mn
Bit rate : 4 200 Kbps
Width : 1 280 pixels
Height : 720 pixels
Display aspect ratio : 16:9
Frame rate : 25.000 fps
Color space : YUV
Chroma subsampling : 4:2:0
Bit depth : 8 bits
Scan type : Progressive
Bits/(Pixel*Frame) : 0.182
Stream size : 3.32 GiB (82%)
Title : Seksmisja.1984
Writing library : x264 core 114 r1900 60ef1f8
Encoding settings : cabac=1 / ref=5 / deblock=1:-3:-3 / analyse=0x3:0x133 / me=umh / subme=9 / psy=1 / psy_rd=1.00:0.10 / mixed_ref=1 / me_range=32 / chroma_me=1 / trellis=2 / 8x8dct=1 / cqm=0 / deadzone=21,11 / fast_pskip=0 / chroma_qp_offset=-3 / threads=3 / sliced_threads=0 / nr=0 / decimate=0 / interlaced=0 / constrained_intra=0 / bframes=3 / b_pyramid=2 / b_adapt=2 / b_bias=0 / direct=3 / weightb=1 / open_gop=0 / weightp=2 / keyint=250 / keyint_min=25 / scenecut=40 / intra_refresh=0 / rc=2pass / mbtree=0 / bitrate=4200 / ratetol=1.0 / qcomp=0.60 / qpmin=0 / qpmax=69 / qpstep=4 / cplxblur=20.0 / qblur=0.5 / ip_ratio=1.40 / pb_ratio=1.30 / aq=1:0.90
Language : Polish
Default : Yes
Forced : No
Audio #1
ID : 2
Format : AC-3
Format/Info : Audio Coding 3
Mode extension : CM (complete main)
Codec ID : A_AC3
Duration : 1h 55mn
Bit rate mode : Constant
Bit rate : 384 Kbps
Channel(s) : 6 channels
Channel positions : Front: L C R, Side: L R, LFE
Sampling rate : 48.0 KHz
Bit depth : 16 bits
Compression mode : Lossy
Stream size : 318 MiB (8%)
Title : MVO (Мастер Тэйп)
Language : Russian
Default : Yes
Forced : No
Audio #2
ID : 3
Format : AC-3
Format/Info : Audio Coding 3
Mode extension : CM (complete main)
Codec ID : A_AC3
Duration : 1h 55mn
Bit rate mode : Constant
Bit rate : 448 Kbps
Channel(s) : 6 channels
Channel positions : Front: L C R, Side: L R, LFE
Sampling rate : 48.0 KHz
Bit depth : 16 bits
Compression mode : Lossy
Stream size : 370 MiB (9%)
Title : Original
Language : Polish
Default : No
Forced : No
Text #1
ID : 4
Format : UTF-8
Codec ID : S_TEXT/UTF8
Codec ID/Info : UTF-8 Plain Text
Language : Russian
Default : No
Forced : No
Text #2
ID : 5
Format : UTF-8
Codec ID : S_TEXT/UTF8
Codec ID/Info : UTF-8 Plain Text
Language : English
Default : No
Forced : No
Показать сообщения:    

Текущее время: Сегодня 07:41

Часовой пояс: GMT



Вы не можете начинать темы
Вы не можете отвечать на сообщения
Вы не можете редактировать свои сообщения
Вы не можете удалять свои сообщения
Вы не можете голосовать в опросах
Вы не можете прикреплять файлы к сообщениям
Вы не можете скачивать файлы