Важное объявление!
У Нас Все раздачи мультитрекерные, при нуле пиров в релизах, можете смело вставать на закачку!
 
Автор Сообщение

димитри37

Стаж:
3 года 9 месяцев
Сообщений:
1237

Репутация: 127

[+] [-]
Вне форума [Профиль] [ЛС]

Новенькая / New Girl
Год выпуска:2012
Страна: США
Жанр:
комедия
Продолжительность:~ 00:24:00
Перевод: Профессиональный (двухголосый, закадровый)
Режиссер:Джейк Кэздан
В ролях: Зои Дешанель, Дэймон Уайанс мл., Джэйк М. Джонсон, Джиллиан Вигмэн, Ханна Симона, Макс Гринфилд, Мэри Элизабет Эллис, Стив Баннос, Хейли Норман, Джек Янг и др.
Описание: Комедия о сексуальных отношениях мужчин и женщин. В центре сюжета — Джесс, оптимистичная, но несчастная в любви учительница начальной школы, которая после последнего разрыва въезжает в квартиру, где уже живут три парня.
Качество:WEB-DLRip
Формат:AVI
Видео кодек:XviD
Аудио кодек:MP3
Видео:656x368 (16/9), 23.976 fps, 1086 Kbps (0.188 bit/pixel)
Аудио (rus):48 kHz, MPEG Layer 3, 2 ch, 128 kbps avg
Аудио 2 (eng):48 kHz, MPEG Layer 3, 2 ch, 128 kbps avg
Все раздачи сериала | Сэмпл

Скриншоты


MI

General Complete name : I:\Новенькая ( Сезон 2) Ozz\New.Girl.S02E01.WEB-DLRip.Ozz.avi Format : AVI Format/Info : Audio Video Interleave File size : 210 MiB Duration : 21mn 41s Overall bit rate : 1 356 Kbps Writing application : VirtualDubMod 1.5.10.3 | www.virtualdub-fr.org || (build 2550/release) Writing library : VirtualDubMod build 2550/release
Video ID : 0 Format : MPEG-4 Visual Format profile : Advanced Simple@L5 Format settings, BVOP : 1 Format settings, QPel : No Format settings, GMC : No warppoints Format settings, Matrix : Default (MPEG) Codec ID : XVID Codec ID/Hint : XviD Duration : 21mn 41s Bit rate : 1 086 Kbps Width : 656 pixels Height : 368 pixels Display aspect ratio : 16:9 Frame rate : 23.976 fps Color space : YUV Chroma subsampling : 4:2:0 Bit depth : 8 bits Scan type : Progressive Compression mode : Lossy Bits/(Pixel*Frame) : 0.188 Stream size : 168 MiB (80%) Writing library : XviD 63
Audio #1 ID : 1 Format : MPEG Audio Format version : Version 1 Format profile : Layer 3 Codec ID : 55 Codec ID/Hint : MP3 Duration : 21mn 41s Bit rate mode : Constant Bit rate : 128 Kbps Channel(s) : 2 channels Sampling rate : 48.0 KHz Compression mode : Lossy Stream size : 19.9 MiB (9%) Alignment : Aligned on interleaves Interleave, duration : 42 ms (1.00 video frame) Interleave, preload duration : 504 ms
Audio #2 ID : 2 Format : MPEG Audio Format version : Version 1 Format profile : Layer 3 Mode : Joint stereo Mode extension : MS Stereo Codec ID : 55 Codec ID/Hint : MP3 Duration : 21mn 41s Bit rate mode : Constant Bit rate : 128 Kbps Channel(s) : 2 channels Sampling rate : 48.0 KHz Compression mode : Lossy Stream size : 19.9 MiB (9%) Alignment : Aligned on interleaves Interleave, duration : 42 ms (1.00 video frame) Interleave, preload duration : 504 ms
-
Показать сообщения:    

Текущее время: Сегодня 14:46

Часовой пояс: GMT



Вы не можете начинать темы
Вы не можете отвечать на сообщения
Вы не можете редактировать свои сообщения
Вы не можете удалять свои сообщения
Вы не можете голосовать в опросах
Вы не можете прикреплять файлы к сообщениям
Вы не можете скачивать файлы