Важное объявление!
У Нас Все раздачи мультитрекерные, при нуле пиров в релизах, можете смело вставать на закачку!
 
Автор Сообщение

HUNTER

Стаж:
4 года 4 месяца
Сообщений:
56809

Репутация: 101

[+] [-]
Вне форума [Профиль] [ЛС]

Ничего себе поездочка 3 / Joy Ride 3
Страна: США
Жанр: триллер
Год выпуска: 2014
Продолжительность: 01:35:53
Перевод: Профессиональный (многоголосый закадровый) SDI Media
Cубтитры: Rus, Eng
Оригинальная аудиодорожка: английский
Режиссер: Деклан О’Брайэн / Declan O'Brien
В ролях: Кирстен Праут, Бен Холлингсворт, Кен Кирзингер, Дин Армстронг, Джесси Хатч, Лила Саваста, Джанпаоло Венута, Джейк Мэнли, Сара Митич
Описание: Команда отчаяных гонщиков отправляется в Канаду, чтобы участвовать в Ралли 1000. На своему пути они подрезают грузовик, следующий по трассе 17 - заброшенной дороге, которую людская молва окрестила Аллеей Убийств. И вот уже цель поездки отходит на второй план, и начинается гонка за жизнь.

Тип релиза: BDRip 720p
Контейнер: MKV
Видео: MPEG-4 AVC, 6754 Кбит/с, 1280x720, 23,976 fps
Аудио: Rus, AC3, 192 kb/s (2 ch), 48 kHz
Аудио 2: Eng, DTS, 1510 kb/s (6 ch), 48 kHz
Формат субтитров: softsub (SRT)

MediaInfo

Format : Matroska
Format version : Version 4 / Version 2
File size : 5.66 GiB
Duration : 1h 35mn
Overall bit rate : 8 452 Kbps
Movie name : Tonik
Encoded date : UTC 2015-01-29 13:00:31
Writing application : mkvmerge v7.1.0 ('Good Love') 64bit built on Jul 27 2014 13:06:55
Writing library : libebml v1.3.0 + libmatroska v1.4.1
DURATION : 01:34:44.510000000
NUMBER_OF_FRAMES : 1122
NUMBER_OF_BYTES : 38392
_STATISTICS_WRITING_APP : mkvmerge v7.1.0 ('Good Love') 64bit built on Jul 27 2014 13:06:55
_STATISTICS_WRITING_DATE_UTC : 2015-01-29 13:00:31
_STATISTICS_TAGS : BPS DURATION NUMBER_OF_FRAMES NUMBER_OF_BYTES
Video
ID : 1
Format : AVC
Format/Info : Advanced Video Codec
Format profile : High@L4.1
Format settings, CABAC : Yes
Format settings, ReFrames : 9 frames
Codec ID : V_MPEG4/ISO/AVC
Duration : 1h 35mn
Bit rate : 6 754 Kbps
Width : 1 280 pixels
Height : 720 pixels
Display aspect ratio : 16:9
Frame rate mode : Constant
Frame rate : 23.976 fps
Color space : YUV
Chroma subsampling : 4:2:0
Bit depth : 8 bits
Scan type : Progressive
Bits/(Pixel*Frame) : 0.306
Stream size : 4.41 GiB (78%)
Writing library : x264 core 142 r2431 ac76440
Encoding settings : cabac=1 / ref=9 / deblock=1:0:0 / analyse=0x3:0x133 / me=umh / subme=9 / psy=1 / psy_rd=1.00:0.00 / mixed_ref=1 / me_range=24 / chroma_me=1 / trellis=2 / 8x8dct=1 / cqm=0 / deadzone=21,11 / fast_pskip=1 / chroma_qp_offset=-2 / threads=6 / lookahead_threads=1 / sliced_threads=0 / nr=0 / decimate=1 / interlaced=0 / bluray_compat=0 / constrained_intra=0 / bframes=9 / b_pyramid=2 / b_adapt=2 / b_bias=0 / direct=3 / weightb=1 / open_gop=0 / weightp=2 / keyint=240 / keyint_min=26 / scenecut=40 / intra_refresh=0 / rc_lookahead=60 / rc=2pass / mbtree=1 / bitrate=6754 / ratetol=1.0 / qcomp=0.60 / qpmin=0 / qpmax=69 / qpstep=4 / cplxblur=20.0 / qblur=0.5 / ip_ratio=2.40 / aq=2:1.00
Language : English
Default : Yes
Forced : No
Color primaries : BT.709
Transfer characteristics : BT.709
Matrix coefficients : BT.709
_STATISTICS_WRITING_APP : mkvmerge v7.1.0 ('Good Love') 64bit built on Jul 27 2014 13:06:55
_STATISTICS_WRITING_DATE_UTC : 2015-01-29 13:00:31
_STATISTICS_TAGS : BPS DURATION NUMBER_OF_FRAMES NUMBER_OF_BYTES
DURATION : 01:35:53.164000000
NUMBER_OF_FRAMES : 137938
NUMBER_OF_BYTES : 4852795517
Audio #1
ID : 2
Format : AC-3
Format/Info : Audio Coding 3
Mode extension : CM (complete main)
Format settings, Endianness : Big
Codec ID : A_AC3
Duration : 1h 35mn
Bit rate mode : Constant
Bit rate : 192 Kbps
Channel(s) : 2 channels
Channel positions : Front: L R
Sampling rate : 48.0 KHz
Bit depth : 16 bits
Compression mode : Lossy
Stream size : 132 MiB (2%)
Title : SDI Media
Language : Russian
Default : Yes
Forced : Yes
Audio #2
ID : 3
Format : DTS
Format/Info : Digital Theater Systems
Mode : 16
Format settings, Endianness : Big
Codec ID : A_DTS
Duration : 1h 35mn
Bit rate mode : Constant
Bit rate : 1 509 Kbps
Channel(s) : 6 channels
Channel positions : Front: L C R, Side: L R, LFE
Sampling rate : 48.0 KHz
Bit depth : 24 bits
Compression mode : Lossy
Stream size : 1.01 GiB (18%)
Language : English
Default : No
Forced : No
Text #1
ID : 4
Format : UTF-8
Codec ID : S_TEXT/UTF8
Codec ID/Info : UTF-8 Plain Text
Language : Russian
Default : No
Forced : No
Text #2
ID : 5
Format : UTF-8
Codec ID : S_TEXT/UTF8
Codec ID/Info : UTF-8 Plain Text
Language : English
Default : No
Forced : No
Menu
00:00:00.000 : en:00:00:00.000
00:05:34.251 : en:00:05:34.251
00:10:53.069 : en:00:10:53.069
00:13:03.408 : en:00:13:03.408
00:16:29.030 : en:00:16:29.030
00:18:09.338 : en:00:18:09.338
00:21:27.995 : en:00:21:27.995
00:25:32.740 : en:00:25:32.740
00:29:08.455 : en:00:29:08.455
00:33:45.023 : en:00:33:45.023
00:36:55.422 : en:00:36:55.422
00:39:06.219 : en:00:39:06.219
00:44:17.780 : en:00:44:17.780
00:47:24.800 : en:00:47:24.800
00:51:15.114 : en:00:51:15.114
00:54:12.124 : en:00:54:12.124
00:58:44.730 : en:00:58:44.730
01:03:42.944 : en:01:03:42.944
01:05:00.897 : en:01:05:00.897
01:08:29.147 : en:01:08:29.147
01:12:02.610 : en:01:12:02.610
01:15:09.880 : en:01:15:09.880
01:19:00.069 : en:01:19:00.069
01:22:11.927 : en:01:22:11.927
01:23:49.608 : en:01:23:49.608
01:28:00.609 : en:01:28:00.609
01:30:05.567 : en:01:30:05.567
01:32:16.531 : en:01:32:16.531

Скриншоты


_________________
Показать сообщения:    

Текущее время: Сегодня 17:28

Часовой пояс: GMT



Вы не можете начинать темы
Вы не можете отвечать на сообщения
Вы не можете редактировать свои сообщения
Вы не можете удалять свои сообщения
Вы не можете голосовать в опросах
Вы не можете прикреплять файлы к сообщениям
Вы не можете скачивать файлы