Важное объявление!
У Нас Все раздачи мультитрекерные, при нуле пиров в релизах, можете смело вставать на закачку!
 
Автор Сообщение

HUNTER

Стаж:
4 года 4 месяца
Сообщений:
56749

Репутация: 101

[+] [-]
Вне форума [Профиль] [ЛС]

Ниночка / Ninotchka-
Год выпуска: 1939
Страна: США
Жанр: комедия, мелодрама
Продолжительность: 01:50:32
Перевод 1: Профессиональный (многоголосый закадровый)
Перевод 2: Профессиональный (многоголосый закадровый) Домашний
Перевод 3: Профессиональный (многоголосый закадровый) Film Prestige
Перевод 4: Авторский (одноголосый закадровый) Григорий Либергал
Оригинальная аудиодорожка: Английская
Cубтитры: Русские (Film Prestige, Яна Кигара), английские (полные, для слабослышащих)-Режиссер: Эрнст Любич / Ernst Lubitsch
В ролях: Грета Гарбо, Мелвин Дуглас, Ина Клер, Бела Лугоши, Сиг Руман, Феликс Брессарт, Александр Гранах, Грегори Гайе, Рольф Седан, Эдвин Максвелл-Описание:
В Париж прибывают посланцы Страны Советов, чтобы выгодно продать национализированные драгоценности, и на вырученные деньги купить оружие и продукты. Неожиданно выясняется, что часть бриллиантов принадлежала до революции великой княгине Сване, которая посылает своего юриста и любовника Леона уладить дела с «красными».
Вкусившие сладкую парижскую жизнь, они заранее готовы на все, лишь бы подольше пробыть здесь. Но поскольку от посланцев ни слуху, ни духу, в Париж с чрезвычайной миссией выезжает несгибаемая революционерка Ниночка… Узнав об этом, Леон решает соблазнить «комиссаршу»…-За дорожку №1 и "Домашний" спасибо olegsa, за Либергала и Film Prestige – bubamara.
| IMDb | Сэмпл-Качество: BDRip 720p (DON)
Контейнер: MKV
Видео: x264, 986x720 (1.37:1), 23.976 fps, 8625 kbps
Аудио 1: Русский AC3 2.0, 48 kHz, 192 kbps – MVO
Аудио 2: Русский AC3 2.0, 48 kHz, 192 kbps – Домашний
Аудио 3: Русский AC3 2.0, 48 kHz, 192 kbps – Film Prestige
Аудио 4: Русский AC3 2.0, 48 kHz, 192 kbps – Либергал
Аудио 5: Английский FLAC 1.0, 48 kHz, 580 kbps
Формат субтитров: softsub (SRT)

MI

nfo
Technical information
RUNTIME.......: 1h:50m:31s
SIZE..........: 7.10 GB
VIDEO CODEC...: x264, CRF17.0, L4.1
FRAMERATE.....: 23.976 fps
BITRATE.......: Variable ~ 8625 Kbps
RESOLUTION....: 986x720 (1.37:1)
AUDIO.........: English FLAC 1.0 @ 580 Kbps
SUBTITLES.....: English (non-SDH, SDH)
CHAPTERS......: Yes
SOURCE........: 1080p Blu-ray AVC DTS-HD MA 1.0-LAZERS (thx theroyal)
RELEASE DATE..: 16/06/2015
ENCODER.......: MrDelRey
x264 info
x264 [info]: frame I:783 Avg QP:18.14 size: 87624
x264 [info]: frame P:29039 Avg QP:19.33 size: 57628
x264 [info]: frame B:129175 Avg QP:19.98 size: 41863
x264 [info]: consecutive B-frames: 0.6% 0.7% 2.2% 14.3% 15.8% 45.8% 9.9% 6.8% 2.3% 1.0% 0.6%
encoded 158997 frames, 4.81 fps, 8625.16 kb/s
General
Unique ID : 181403452709281252387892317313365187891 (0x887908BEA1A1743F9F5D5866DCBC1D33)
Complete name : Ninotchka.1939.720p.BluRay.x264-DON.mkv
Format : Matroska
Format version : Version 2
File size : 7.70 GiB
Duration : 1h 50mn
Overall bit rate mode : Variable
Overall bit rate : 9 975 Kbps
Movie name : Ninotchka / Ниночка (1939) - RuTracker
Encoded date : UTC 2015-07-03 15:00:24
Writing application : mkvmerge v7.5.0 ('Glass Culture') 64bit built on Jan 4 2015 16:48:44
Writing library : libebml v1.3.1 + libmatroska v1.4.2
Attachements : cover.jpg
Video
ID : 1
Format : AVC
Format/Info : Advanced Video Codec
Format profile : High@L4.1
Format settings, CABAC : Yes
Format settings, ReFrames : 11 frames
Codec ID : V_MPEG4/ISO/AVC
Duration : 1h 50mn
Width : 986 pixels
Height : 720 pixels
Display aspect ratio : 4:3
Frame rate mode : Constant
Frame rate : 23.976 fps
Color space : YUV
Chroma subsampling : 4:2:0
Bit depth : 8 bits
Scan type : Progressive
Title : Ninotchka.1939.720p.BluRay.FLAC1.0.x264-DON
Writing library : x264 core 146 r2538kMod 121396c
Encoding settings : cabac=1 / ref=11 / deblock=1:-3:-3 / analyse=0x3:0x133 / me=umh / subme=11 / psy=1 / fade_compensate=0.00 / psy_rd=0.95:0.00 / mixed_ref=1 / me_range=32 / chroma_me=1 / trellis=2 / 8x8dct=1 / cqm=0 / deadzone=21,11 / fast_pskip=0 / chroma_qp_offset=-2 / threads=12 / lookahead_threads=3 / sliced_threads=0 / nr=0 / decimate=0 / interlaced=0 / bluray_compat=0 / constrained_intra=0 / fgo=0 / bframes=10 / b_pyramid=2 / b_adapt=2 / b_bias=0 / direct=3 / weightb=1 / open_gop=0 / weightp=2 / keyint=250 / keyint_min=23 / scenecut=40 / intra_refresh=0 / rc_lookahead=60 / rc=crf / mbtree=0 / crf=17.0000 / qcomp=0.60 / qpmin=0 / qpmax=69 / qpstep=4 / vbv_maxrate=62500 / vbv_bufsize=78125 / crf_max=0.0 / nal_hrd=none / filler=0 / ip_ratio=1.20 / pb_ratio=1.10 / aq=1:0.70
Language : English
Default : Yes
Forced : No
Audio #1
ID : 2
Format : AC-3
Format/Info : Audio Coding 3
Mode extension : CM (complete main)
Format settings, Endianness : Big
Codec ID : A_AC3
Duration : 1h 50mn
Bit rate mode : Constant
Bit rate : 192 Kbps
Channel(s) : 2 channels
Channel positions : Front: L R
Sampling rate : 48.0 KHz
Bit depth : 16 bits
Compression mode : Lossy
Stream size : 152 MiB (2%)
Title : MVO
Language : Russian
Default : Yes
Forced : No
Audio #2
ID : 3
Format : AC-3
Format/Info : Audio Coding 3
Mode extension : CM (complete main)
Format settings, Endianness : Big
Codec ID : A_AC3
Duration : 1h 50mn
Bit rate mode : Constant
Bit rate : 192 Kbps
Channel(s) : 2 channels
Channel positions : Front: L R
Sampling rate : 48.0 KHz
Bit depth : 16 bits
Compression mode : Lossy
Stream size : 152 MiB (2%)
Title : MVO – Домашний
Language : Russian
Default : No
Forced : No
Audio #3
ID : 4
Format : AC-3
Format/Info : Audio Coding 3
Mode extension : CM (complete main)
Format settings, Endianness : Big
Codec ID : A_AC3
Duration : 1h 50mn
Bit rate mode : Constant
Bit rate : 192 Kbps
Channel(s) : 2 channels
Channel positions : Front: L R
Sampling rate : 48.0 KHz
Bit depth : 16 bits
Compression mode : Lossy
Stream size : 152 MiB (2%)
Title : MVO – Film Prestige
Language : Russian
Default : No
Forced : No
Audio #4
ID : 5
Format : AC-3
Format/Info : Audio Coding 3
Mode extension : CM (complete main)
Format settings, Endianness : Big
Codec ID : A_AC3
Duration : 1h 50mn
Bit rate mode : Constant
Bit rate : 192 Kbps
Channel(s) : 2 channels
Channel positions : Front: L R
Sampling rate : 48.0 KHz
Bit depth : 16 bits
Compression mode : Lossy
Stream size : 152 MiB (2%)
Title : AVO – Г. Либергал
Language : Russian
Default : No
Forced : No
Audio #5
ID : 6
Format : FLAC
Format/Info : Free Lossless Audio Codec
Codec ID : A_FLAC
Duration : 1h 50mn
Bit rate mode : Variable
Channel(s) : 1 channel
Sampling rate : 48.0 KHz
Bit depth : 24 bits
Title : Original
Writing library : libFLAC 1.3.0 (UTC 2013-05-26)
Language : English
Default : No
Forced : No
Text #1
ID : 7
Format : UTF-8
Codec ID : S_TEXT/UTF8
Codec ID/Info : UTF-8 Plain Text
Title : R5
Language : Russian
Default : No
Forced : No
Text #2
ID : 8
Format : UTF-8
Codec ID : S_TEXT/UTF8
Codec ID/Info : UTF-8 Plain Text
Title : Яна Кигара
Language : Russian
Default : No
Forced : No
Text #3
ID : 9
Format : UTF-8
Codec ID : S_TEXT/UTF8
Codec ID/Info : UTF-8 Plain Text
Language : English
Default : No
Forced : No
Text #4
ID : 10
Format : UTF-8
Codec ID : S_TEXT/UTF8
Codec ID/Info : UTF-8 Plain Text
Title : SDH
Language : English
Default : No
Forced : No
Menu
00:00:00.000 : en:Chapter 01
00:10:10.901 : en:Chapter 02
00:20:36.485 : en:Chapter 03
00:29:03.533 : en:Chapter 04
00:40:25.923 : en:Chapter 05
00:49:40.769 : en:Chapter 06
01:00:40.261 : en:Chapter 07
01:10:54.124 : en:Chapter 08
01:17:12.628 : en:Chapter 09
01:27:42.131 : en:Chapter 10
01:39:00.893 : en:Chapter 11
01:50:03.471 : en:Chapter 12

_________________
Показать сообщения:    

Текущее время: Сегодня 22:40

Часовой пояс: GMT



Вы не можете начинать темы
Вы не можете отвечать на сообщения
Вы не можете редактировать свои сообщения
Вы не можете удалять свои сообщения
Вы не можете голосовать в опросах
Вы не можете прикреплять файлы к сообщениям
Вы не можете скачивать файлы