Важное объявление!
У Нас Все раздачи мультитрекерные, при нуле пиров в релизах, можете смело вставать на закачку!
 
Автор Сообщение

HUNTER

Стаж:
4 года 4 месяца
Сообщений:
56798

Репутация: 101

[+] [-]
Вне форума [Профиль] [ЛС]

Ниндзя из Беверли Хиллз / Beverly Hills Ninja
Страна: США
Жанр: боевик, комедия
Год выпуска: 1997
Продолжительность: 01:28:36
Перевод:
1: Профессиональный (многоголосый закадровый) - Видеосервис
2: Профессиональный (многоголосый закадровый) - РТР/ ТНТ/ СТС/ Первый HD
3: Авторский (одноголосый закадровый) - Юрий Живов
4: Одноголосый закадровый (неизвестный переводчик)
Субтитры: Русские, Английские
Навигация по главам: нет
Режиссер: Деннис Дуган / Dennis Dugan
В ролях: Крис Фарли, Николетт Шеридан, Робин Шоу, О Сун Тек, Натаниель Паркер, Кит Кук, Крис Рок
Описание: Ниндзя — таинственный, пугающий и очень хитрый воин тьмы, который ничего не боится и не поддается контролю. Таким хотел видеть своего приемного сына наставник ниндзя, случайно подобрав младенца в лесу. И хотя из него и вырос толстый болван, он все равно должен стать воином и выполнить миссию ниндзя — вызволить из беды голливудскую красотку. Но здесь, в Беверли Хиллз, ему приходится столкнуться с настоящими убийцами, которые знают тайны кунг-фу получше его...
Доп. информация:
Видеодорожка взята с iTunes (US), спасибо soulstorm
Аудио №1 получено наложением выделенных голосов на оригинальную дорожку, спасибо st83de
Аудио №2 взято отсюда, спасибо Dreven
Ищу перевод Е. Гранкина. Ищу WEB-DL 1080p с amazon instant video
Сэмпл: https://yadi.sk/i/1ZcmZcY3hUKTW
Качество: WEB-DL 1080p
Контейнер: MKV
Видео: AVC 1916x1076, (1.78:1), 23,976 fps, 4885 Kbps
Аудио №1: Rus; AC3 5.1; 448 Kbps; 48 kHz; MVO Видеосервис
Аудио №2: Rus; AC3 2.0; 192 Kbps; 48 kHz; MVO РТР/ ТНТ/ СТС/ Первый HD
Аудио №3: Rus; AC3 2.0; 192 Kbps; 48 kHz; AVO Юрий Живов
Аудио №4: Rus; AC3 2.0; 192 Kbps; 48 kHz; VO (неизвестный переводчик)
Аудио №5: Eng; AC3 5.1; 384 Kbps; 48 kHz; Original
Субтитры №1: Rus; SRT
Субтитры №2: Eng; SRT

MediaInfo

General
Unique ID : 213989931776755292039737169545391353659 (0xA0FCF634A22D0B54A0916125FE05AF3B)
Complete name : D:\FINAL\Beverly Hills Ninja.mkv
Format : Matroska
Format version : Version 2
File size : 3.97 GiB
Duration : 1h 28mn
Overall bit rate : 6 421 Kbps
Encoded date : UTC 2015-06-25 11:03:23
Writing application : mkvmerge v5.0.1 ('Es ist Sommer') built on Oct 9 2011 11:55:43
Writing library : libebml v1.2.2 + libmatroska v1.3.0
Video
ID : 1
Format : AVC
Format/Info : Advanced Video Codec
Format profile : High@L4.0
Format settings, CABAC : Yes
Format settings, ReFrames : 4 frames
Codec ID : V_MPEG4/ISO/AVC
Duration : 1h 28mn
Bit rate : 4 885 Kbps
Width : 1 916 pixels
Height : 1 076 pixels
Display aspect ratio : 16:9
Original display aspect ratio : 16:9
Frame rate mode : Constant
Frame rate : 23.976 fps
Color space : YUV
Chroma subsampling : 4:2:0
Bit depth : 8 bits
Scan type : Progressive
Bits/(Pixel*Frame) : 0.099
Stream size : 3.02 GiB (76%)
Language : English
Default : Yes
Forced : No
Color primaries : BT.709
Transfer characteristics : BT.709
Matrix coefficients : BT.709
Color range : Limited
Audio #1
ID : 2
Format : AC-3
Format/Info : Audio Coding 3
Mode extension : CM (complete main)
Format settings, Endianness : Big
Codec ID : A_AC3
Duration : 1h 28mn
Bit rate mode : Constant
Bit rate : 448 Kbps
Channel(s) : 6 channels
Channel positions : Front: L C R, Side: L R, LFE
Sampling rate : 48.0 KHz
Bit depth : 16 bits
Compression mode : Lossy
Stream size : 284 MiB (7%)
Title : MVO Видеосервис
Language : Russian
Default : Yes
Forced : No
Audio #2
ID : 3
Format : AC-3
Format/Info : Audio Coding 3
Mode extension : CM (complete main)
Format settings, Endianness : Big
Codec ID : A_AC3
Duration : 1h 28mn
Bit rate mode : Constant
Bit rate : 192 Kbps
Channel(s) : 2 channels
Channel positions : Front: L R
Sampling rate : 48.0 KHz
Bit depth : 16 bits
Compression mode : Lossy
Stream size : 122 MiB (3%)
Title : MVO РТР/ ТНТ/ СТС/ Первый HD
Language : Russian
Default : No
Forced : No
Audio #3
ID : 4
Format : AC-3
Format/Info : Audio Coding 3
Mode extension : CM (complete main)
Format settings, Endianness : Big
Codec ID : A_AC3
Duration : 1h 28mn
Bit rate mode : Constant
Bit rate : 192 Kbps
Channel(s) : 2 channels
Channel positions : Front: L R
Sampling rate : 48.0 KHz
Bit depth : 16 bits
Compression mode : Lossy
Stream size : 122 MiB (3%)
Title : AVO Живов
Language : Russian
Default : No
Forced : No
Audio #4
ID : 5
Format : AC-3
Format/Info : Audio Coding 3
Mode extension : CM (complete main)
Format settings, Endianness : Big
Codec ID : A_AC3
Duration : 1h 28mn
Bit rate mode : Constant
Bit rate : 192 Kbps
Channel(s) : 2 channels
Channel positions : Front: L R
Sampling rate : 48.0 KHz
Bit depth : 16 bits
Compression mode : Lossy
Stream size : 122 MiB (3%)
Title : VO
Language : Russian
Default : No
Forced : No
Audio #5
ID : 6
Format : AC-3
Format/Info : Audio Coding 3
Mode extension : CM (complete main)
Format settings, Endianness : Big
Codec ID : A_AC3
Duration : 1h 28mn
Bit rate mode : Constant
Bit rate : 384 Kbps
Channel(s) : 6 channels
Channel positions : Front: L C R, Side: L R, LFE
Sampling rate : 48.0 KHz
Bit depth : 16 bits
Compression mode : Lossy
Stream size : 243 MiB (6%)
Title : Original
Language : English
Default : No
Forced : No
Text #1
ID : 7
Format : UTF-8
Codec ID : S_TEXT/UTF8
Codec ID/Info : UTF-8 Plain Text
Title : Rus
Language : Russian
Default : No
Forced : No
Text #2
ID : 8
Format : UTF-8
Codec ID : S_TEXT/UTF8
Codec ID/Info : UTF-8 Plain Text
Title : Eng
Language : English
Default : No
Forced : No

Скриншоты


_________________
Показать сообщения:    

Текущее время: Сегодня 06:48

Часовой пояс: GMT



Вы не можете начинать темы
Вы не можете отвечать на сообщения
Вы не можете редактировать свои сообщения
Вы не можете удалять свои сообщения
Вы не можете голосовать в опросах
Вы не можете прикреплять файлы к сообщениям
Вы не можете скачивать файлы