Важное объявление!
У Нас Все раздачи мультитрекерные, при нуле пиров в релизах, можете смело вставать на закачку!
 
Автор Сообщение

HUNTER

Стаж:
4 года 4 месяца
Сообщений:
56772

Репутация: 101

[+] [-]
Вне форума [Профиль] [ЛС]


Николай и Александра / Nicholas and Alexandra
Страна: США
Жанр: драма, военный, биография, история
Год выпуска: 1971
Продолжительность: 03:08:26
Перевод: профессиональный (многоголосый закадровый) - Пятый канал (Санкт-Петербург)
Cубтитры: английские

Оригинальная аудиодорожка: английский
Режиссер: Франклин Дж. Шаффнер / Franklin J. Schaffner
В ролях: Майкл Джэйстон, Джанет Сузман, Родрик Ноубл, Аня Марсон, Линн Фредерик, Кендес Гленденнинг, Фиона Фуллертон, Гарри Эндрюс, Айрин Уорт, Том Бэйкер, Джек Хоукинс, Тимоти Уэст, Кэтерин Шофилд, Жан-Клод Друо, Джон Хэллам, Гай Рольф, Джон Вуд, Лоуренс Оливье, Эрик Портер, Майкл Редгрейв, Морис Денэм, Ральф Труман, Гордон Гостелоу, Джон МакИнери, Майкл Брайант, Вивиан Пиклз, Брайан Кокс, Джеймс Хэзелдайн, Стефен Грейф, Стивен Беркофф, Иэн Холм, Алан Уэбб, Леон Лиссек, Дэвид Джиллз, Рой Дотрис, Мартин Поттер, Ричард Уорвик, Вернон Добчефф, Александр Нокс, Ральф Невилл, Жорж Риго, Курд Юргенс

Описание:По книге Роберта Мэсси. Костюмная драма о трагической судьбе семьи последнего русского императора Николая II и о событиях, происходивших в начале XX века, повлиявших в дальнейшем на историю не только России, но и всего мира. Александра наконец-то рожает наследника Алексея, но это радостное событие омрачается мрачным диагнозом врачей. У малыша - гемофилия.

Качество видео: BDRip (1080p)
Формат видео: MKV
Видео: MPEG-4 AVC, 1920x816, 23.976 fps, 8366 kbps
Аудио: Russian (MP3, 48 kHz, 2 ch, 128 kbps)
Аудио: English (DTS, 48 kHz, 1 ch, 768 kbps)
Формат субтитров: SUB+IDX

MediaInfo

Код:
Общее
Полное имя : E:VideoNicholas.and.Alexandra.1971.P.BDRip.1080pNicholas.and.Alexandra.1971.P.BDRip.1080p.mkv
Формат : Matroska
Версия формата : Version 4 / Version 2
Размер файла : 12,2 Гбайт
Продолжительность : 3 ч. 8 м.
Общий поток : 9264 Кбит/сек
Дата кодирования : UTC 2013-02-11 13:42:42
Программа кодирования : mkvmerge v6.0.0 ('Coming Up For Air') built on Jan 20 2013 09:52:00
Библиотека кодирования : libebml v1.3.0 + libmatroska v1.4.0
Видео
Идентификатор : 1
Формат : AVC
Формат/Информация : Advanced Video Codec
Профиль формата : High@L4.1
Параметр CABAC формата : Да
Параметр ReFrames формата : 5 кадров
Идентификатор кодека : V_MPEG4/ISO/AVC
Продолжительность : 3 ч. 8 м.
Битрейт : 8366 Кбит/сек
Ширина : 1920 пикселей
Высота : 816 пикселей
Соотношение сторон : 2,35:1
Режим частоты кадров : Постоянный
Частота кадров : 23,976 кадра/сек
Цветовое пространство : YUV
Субдискретизация насыщенности : 4:2:0
Битовая глубина : 8 бит
Тип развёртки : Прогрессивная
Бит/(Пиксели*Кадры) : 0.223
Размер потока : 10,8 Гбайт (88%)
Библиотека кодирования : x264 core 129 r2245 bc13772
Настройки программы : cabac=1 / ref=5 / deblock=1:0:0 / analyse=0x3:0x113 / me=umh / subme=8 / psy=1 / psy_rd=1.00:0.00 / mixed_ref=1 / me_range=16 / chroma_me=1 / trellis=1 / 8x8dct=1 / cqm=0 / deadzone=21,11 / fast_pskip=1 / chroma_qp_offset=-2 / threads=12 / lookahead_threads=2 / sliced_threads=0 / nr=0 / decimate=1 / interlaced=0 / bluray_compat=0 / constrained_intra=0 / bframes=3 / b_pyramid=2 / b_adapt=2 / b_bias=0 / direct=3 / weightb=1 / open_gop=0 / weightp=2 / keyint=240 / keyint_min=24 / scenecut=40 / intra_refresh=0 / rc_lookahead=50 / rc=2pass / mbtree=1 / bitrate=8366 / ratetol=1.0 / qcomp=0.60 / qpmin=0 / qpmax=69 / qpstep=4 / cplxblur=20.0 / qblur=0.5 / ip_ratio=1.40 / aq=1:1.00
Язык : English
Default : Да
Forced : Нет
Аудио #1
Идентификатор : 2
Формат : MPEG Audio
Версия формата : Version 1
Профиль формата : Layer 3
Идентификатор кодека : A_MPEG/L3
Идентификатор кодека/Подсказка : MP3
Продолжительность : 3 ч. 8 м.
Вид битрейта : Постоянный
Битрейт : 128 Кбит/сек
Каналы : 2 канала
Частота : 44,1 КГц
Метод сжатия : С потерями
Задержка видео : 11 мс.
Размер потока : 173 Мбайт (1%)
Заголовок : MVO [5 kanal (SPb)]
Язык : Russian
Default : Да
Forced : Нет
Аудио #2
Идентификатор : 3
Формат : DTS
Формат/Информация : Digital Theater Systems
Режим : 16
Параметр Endianness формата : Big
Идентификатор кодека : A_DTS
Продолжительность : 3 ч. 8 м.
Вид битрейта : Постоянный
Битрейт : 768 Кбит/сек
Каналы : 1 канал
Расположение каналов : Front: C
Частота : 48,0 КГц
Битовая глубина : 24 бит
Метод сжатия : С потерями
Размер потока : 1,01 Гбайт (8%)
Язык : English
Default : Нет
Forced : Нет
Меню
00:00:00.000 : en:00:00:00.000
00:13:47.869 : en:00:13:47.869
00:27:06.124 : en:00:27:06.124
00:33:59.037 : en:00:33:59.037
00:44:39.927 : en:00:44:39.927
00:55:53.600 : en:00:55:53.600
01:04:44.881 : en:01:04:44.881
01:17:07.206 : en:01:17:07.206
01:31:54.217 : en:01:31:54.217
01:45:41.210 : en:01:45:41.210
01:55:31.091 : en:01:55:31.091
02:08:54.352 : en:02:08:54.352
02:17:50.679 : en:02:17:50.679
02:31:21.864 : en:02:31:21.864
02:47:09.394 : en:02:47:09.394
03:06:57.456 : en:03:06:57.456

Скриншоты



_________________
Показать сообщения:    

Текущее время: Сегодня 12:49

Часовой пояс: GMT



Вы не можете начинать темы
Вы не можете отвечать на сообщения
Вы не можете редактировать свои сообщения
Вы не можете удалять свои сообщения
Вы не можете голосовать в опросах
Вы не можете прикреплять файлы к сообщениям
Вы не можете скачивать файлы