Важное объявление!
У Нас Все раздачи мультитрекерные, при нуле пиров в релизах, можете смело вставать на закачку!
 
Автор Сообщение

HUNTER

Стаж:
4 года 4 месяца
Сообщений:
56829

Репутация: 101

[+] [-]
Вне форума [Профиль] [ЛС]

Никогда не сдавайся 2 / Never Back Down 2: The Beatdown
Страна: США
Жанр: боевик, спорт
Год выпуска: 2011
Продолжительность: 01:39:17
Перевод: Профессиональный (многоголосый закадровый) - Видеосервис
Субтитры: Русские, английские
Навигация по главам: нет
Режиссер: Майкл Джей Уайт / Michael Jai White
В ролях: Майкл Джей Уайт, Эван Питерс, Дин Гейер, Алекс Мераз, Тодд Даффи, Скотти Эпштейн, Джиллиан Мюррэй, Гэбриэлль Шуфф
Описание: На звание чемпиона претендуют четыре бойца, обучить которых самым изобретательным боевым техникам предстоит звезде микс файта Кейсу Уокеру.
У каждого свои преимущества и свои слабые стороны, и только финальный бой выявит сильнейшего. Грядет самый беспощадный чемпионат из когда-либо проводившихся…
Доп. информация:
Видеодорожка взята с Amazon (DE), за содействие в покупке спасибо Wareznik
Сэмпл: https://yadi.sk/i/pihaHeWbhWxUc
Качество: WEB-DL 1080p
Контейнер: MKV
Видео: AVC 1920x1080, (1.78:1), 25 fps, 10000 Kbps
Аудио №1: Rus; AC3 5.1; 384 Kbps; 48 kHz; MVO (Видеосервис)
Аудио №2: Eng; AC3 5.1; 384 Kbps; 48 kHz; Original
Субтитры №1: Rus; SRT
Субтитры №2: Eng; SRT

MediaInfo

General
Unique ID : 241011358327784351348645715402099845554 (0xB5511964C8B5E84FB49F6BDD6178E9B2)
Complete name : D:\FINAL\Never Back Down 2.mkv
Format : Matroska
Format version : Version 4 / Version 2
File size : 7.42 GiB
Duration : 1h 39mn
Overall bit rate : 10.7 Mbps
Encoded date : UTC 2015-06-27 18:25:24
Writing application : mkvmerge v8.0.0 ('Til The Day That I Die') 64bit
Writing library : libebml v1.3.1 + libmatroska v1.4.2
DURATION : 01:34:13.561000000
NUMBER_OF_FRAMES : 1216
NUMBER_OF_BYTES : 42007
_STATISTICS_WRITING_APP : mkvmerge v8.0.0 ('Til The Day That I Die') 64bit
_STATISTICS_WRITING_DATE_UTC : 2015-06-27 18:25:24
_STATISTICS_TAGS : BPS DURATION NUMBER_OF_FRAMES NUMBER_OF_BYTES
Video
ID : 1
Format : AVC
Format/Info : Advanced Video Codec
Format profile : High@L4.0
Format settings, CABAC : Yes
Format settings, ReFrames : 4 frames
Codec ID : V_MPEG4/ISO/AVC
Duration : 1h 39mn
Bit rate mode : Constant
Bit rate : 10 000 Kbps
Width : 1 920 pixels
Height : 1 080 pixels
Display aspect ratio : 16:9
Frame rate mode : Constant
Frame rate : 25.000 fps
Standard : PAL
Color space : YUV
Chroma subsampling : 4:2:0
Bit depth : 8 bits
Scan type : Progressive
Bits/(Pixel*Frame) : 0.193
Stream size : 6.74 GiB (91%)
Language : English
Default : Yes
Forced : No
Color primaries : BT.709
Transfer characteristics : BT.709
Matrix coefficients : BT.709
Color range : Limited
Audio #1
ID : 2
Format : AC-3
Format/Info : Audio Coding 3
Mode extension : CM (complete main)
Format settings, Endianness : Big
Codec ID : A_AC3
Duration : 1h 39mn
Bit rate mode : Constant
Bit rate : 384 Kbps
Channel(s) : 6 channels
Channel positions : Front: L C R, Side: L R, LFE
Sampling rate : 48.0 KHz
Bit depth : 16 bits
Compression mode : Lossy
Stream size : 273 MiB (4%)
Title : MVO Видеосервис
Language : Russian
Default : Yes
Forced : No
Audio #2
ID : 3
Format : AC-3
Format/Info : Audio Coding 3
Mode extension : CM (complete main)
Format settings, Endianness : Big
Codec ID : A_AC3
Duration : 1h 39mn
Bit rate mode : Constant
Bit rate : 384 Kbps
Channel(s) : 6 channels
Channel positions : Front: L C R, Side: L R, LFE
Sampling rate : 48.0 KHz
Bit depth : 16 bits
Compression mode : Lossy
Stream size : 273 MiB (4%)
Title : Original
Language : English
Default : No
Forced : No
Text #1
ID : 4
Format : UTF-8
Codec ID : S_TEXT/UTF8
Codec ID/Info : UTF-8 Plain Text
Title : rus
Language : Russian
Default : No
Forced : No
Text #2
ID : 5
Format : UTF-8
Codec ID : S_TEXT/UTF8
Codec ID/Info : UTF-8 Plain Text
Title : eng
Language : English
Default : No
Forced : No

Скриншоты


_________________

димитри3777

Стаж:
1 год 5 месяцев
Сообщений:
9
Вне форума [Профиль] [ЛС]

Наконец-то залили, давно я его не смотрел)
Показать сообщения:    

Текущее время: Сегодня 10:28

Часовой пояс: GMT



Вы не можете начинать темы
Вы не можете отвечать на сообщения
Вы не можете редактировать свои сообщения
Вы не можете удалять свои сообщения
Вы не можете голосовать в опросах
Вы не можете прикреплять файлы к сообщениям
Вы не можете скачивать файлы