Важное объявление!
У Нас Все раздачи мультитрекерные, при нуле пиров в релизах, можете смело вставать на закачку!
 
Автор Сообщение

HUNTER

Стаж:
4 года 4 месяца
Сообщений:
56829

Репутация: 101

[+] [-]
Вне форума [Профиль] [ЛС]

Нечего терять / Nothing to Lose-
Страна: США
Студия: Touchstone Pictures
Жанр: Комедия, приключения
Год выпуска: 1997
Продолжительность: 01:37:56
Перевод 1: Профессиональный (дублированный) «Нева-1»
Перевод 2: Профессиональный (многоголосый закадровый) «СТС»
Перевод 3: Авторский (одноголосый закадровый) Юрий Живов
Cубтитры: Русские, Английские
Оригинальная аудиодорожка: Английский
Режиссер: Стив Одекерк / Steve Oedekerk
В ролях: Мартин Лоуренс, Тим Роббинс, Джон К. МакГинли, Джанкарло Эспозито, Келли Престон, Майкл МакКин, Ребекка Гэйхарт, Сьюзэн Барнс, Ирма П. Холл, Самариа Грэхэм.
Описание: Рекламный агент Ник Бим, которому нечего терять... кроме своей обожаемой жены, застает ее в постели с собственным начальником. Доведенный до отчаяния, он садится в машину и уезжает куда глаза глядят.
Но неприятности для него только начинаются, ведь в этот момент другой неудачник выходит на большую дорогу в поисках жертвы. А на горизонте как раз показался автомобиль Ника...-Рейтинг
[img]https://rating.kinopoisk.ru/6124.gif[/img]-Сэмпл
Тип релиза: WEB-DL 1080p
Контейнер: MKV
Видео: 1920x1040 (1,85:1), 23.976 fps, x264, ~13000 kbps
Аудио 1: Russian: 48 kHz, AC3, 2/0 (L,R) ch, ~192 kbps | Дубляж, «Нева-1»
Аудио 2: Russian: 48 kHz, AC3, 2/0 (L,R) ch, ~128 kbps | Многоголосый закадровый, «СТС»
Аудио 3: Russian: 48 kHz, AC3, 3/2 (L,C,R,l,r) ch, ~384 kbps | Одноголосый закадровый, Юрий Живов
Аудио 4: English: 48 kHz, AC3, 3/2 (L,C,R,l,r) + LFE ch, ~384 kbps | Original (iTunes)
Аудио 5: English: 48 kHz, E-AC3, 2/0 (L,R) ch, ~224 kbps | Original
Субтитры: Русские, Английские
Формат субтитров: softsub (SRT)

Дополнительно

За работу над дубляжом спасибо Mark20100.
Дорожка Ю. Живова перетянута с [url=viewtopic.php?t=1052926]этой[/url] раздачи.

MediaInfo

Общее
Unique ID : 207181602074683122367239184425937192382 (0x9BDDB9A2863E03B8B768C1450366C5BE)
Complete name : E:\video_rutracker\Nothing.to.Lose.1997.1080p.WEB-DL.3xRus.2xEng.x264.mkv
Format : Matroska
Format version : Version 2
File size : 9,98 Гбайт
Duration : 1 ч. 37 м.
Overall bit rate mode : Переменный
Overall bit rate : 14,6 Мбит/сек
Movie name : Nothing to Lose.1997 | RuTracker | igrok2012
Encoded date : UTC 2016-10-01 08:12:37
Writing application : mkvmerge v8.3.0 ('Over the Horizon') 64bit
Writing library : libebml v1.3.1 + libmatroska v1.4.2
Cover : Yes
Attachments : cover.jpg
Видео
ID : 1
Format : AVC
Format/Info : Advanced Video Codec
Format profile : High@L4
Format settings, CABAC : Да
Format settings, ReFrames : 4 кадра
Codec ID : V_MPEG4/ISO/AVC
Duration : 1 ч. 37 м.
Bit rate mode : Переменный
Bit rate : 13,0 Мбит/сек
Maximum bit rate : 15,0 Мбит/сек
Width : 1920 пикселей
Height : 1040 пикселей
Display aspect ratio : 1,85:1
Frame rate mode : Постоянный
Frame rate : 23,976 (24000/1001) кадра/сек
Color space : YUV
Chroma subsampling : 4:2:0
Bit depth : 8 бит
Scan type : Прогрессивная
Bits/(Pixel*Frame) : 0.271
Stream size : 8,88 Гбайт (89%)
Title : Nothing To Lose 1997
Writing library : x264 core 148 r2623 d5b2374
Encoding settings : cabac=1 / ref=4 / deblock=1:-1:-1 / analyse=0x3:0x133 / me=umh / subme=9 / psy=1 / psy_rd=1.00:0.15 / mixed_ref=1 / me_range=24 / chroma_me=1 / trellis=2 / 8x8dct=1 / cqm=0 / deadzone=21,11 / fast_pskip=1 / chroma_qp_offset=-3 / threads=32 / lookahead_threads=5 / sliced_threads=0 / nr=150 / decimate=1 / interlaced=0 / bluray_compat=0 / constrained_intra=0 / bframes=8 / b_pyramid=2 / b_adapt=2 / b_bias=0 / direct=3 / weightb=1 / open_gop=0 / weightp=2 / keyint=120 / keyint_min=61 / scenecut=0 / intra_refresh=0 / rc_lookahead=120 / rc=crf / mbtree=1 / crf=18.0 / qcomp=0.60 / qpmin=0 / qpmax=69 / qpstep=4 / vbv_maxrate=15000 / vbv_bufsize=31250 / crf_max=0.0 / nal_hrd=vbr / filler=0 / ip_ratio=1.40 / aq=3:1.00
Default : Да
Forced : Нет
Color range : Limited
Color primaries : BT.709
Transfer characteristics : BT.709
Matrix coefficients : BT.709
Аудио #1
ID : 2
Format : AC-3
Format/Info : Audio Coding 3
Format profile : Dolby Digital
Mode extension : CM (complete main)
Format settings, Endianness : Big
Codec ID : A_AC3
Duration : 1 ч. 37 м.
Bit rate mode : Постоянный
Bit rate : 192 Кбит/сек
Channel(s) : 2 канала
Channel positions : Front: L R
Sampling rate : 48,0 КГц
Frame rate : 31,250 кадров/сек (1536 spf)
Compression mode : С потерями
Stream size : 134 Мбайт (1%)
Title : Дубляж, «Нева-1»
Language : Russian
Default : Да
Forced : Нет
Аудио #2
ID : 3
Format : AC-3
Format/Info : Audio Coding 3
Mode extension : CM (complete main)
Format settings, Endianness : Big
Codec ID : A_AC3
Duration : 1 ч. 37 м.
Bit rate mode : Постоянный
Bit rate : 128 Кбит/сек
Channel(s) : 2 канала
Channel positions : Front: L R
Sampling rate : 48,0 КГц
Frame rate : 31,250 кадров/сек (1536 spf)
Compression mode : С потерями
Stream size : 89,7 Мбайт (1%)
Title : Многоголосый закадровый, «СТС»
Language : Russian
Default : Нет
Forced : Нет
Аудио #3
ID : 4
Format : AC-3
Format/Info : Audio Coding 3
Mode extension : CM (complete main)
Format settings, Endianness : Big
Codec ID : A_AC3
Duration : 1 ч. 37 м.
Bit rate mode : Постоянный
Bit rate : 384 Кбит/сек
Channel(s) : 5 каналов
Channel positions : Front: L C R, Side: L R
Sampling rate : 48,0 КГц
Frame rate : 31,250 кадров/сек (1536 spf)
Compression mode : С потерями
Stream size : 269 Мбайт (3%)
Title : Одноголосый закадровый, Юрий Живов
Language : Russian
Default : Нет
Forced : Нет
Аудио #4
ID : 5
Format : AC-3
Format/Info : Audio Coding 3
Mode extension : CM (complete main)
Format settings, Endianness : Big
Codec ID : A_AC3
Duration : 1 ч. 37 м.
Bit rate mode : Постоянный
Bit rate : 384 Кбит/сек
Channel(s) : 6 каналов
Channel positions : Front: L C R, Side: L R, LFE
Sampling rate : 48,0 КГц
Frame rate : 31,250 кадров/сек (1536 spf)
Compression mode : С потерями
Stream size : 269 Мбайт (3%)
Title : AC3 5.1 ch, 384 kbps
Language : English
Default : Нет
Forced : Нет
Аудио #5
ID : 6
Format : E-AC-3
Format/Info : Audio Coding 3
Format settings, Endianness : Big
Codec ID : A_EAC3
Duration : 1 ч. 37 м.
Bit rate mode : Постоянный
Bit rate : 224 Кбит/сек
Channel(s) : 2 канала
Channel positions : Front: L R
Sampling rate : 48,0 КГц
Frame rate : 187,500 кадров/сек (256 spf)
Compression mode : С потерями
Stream size : 157 Мбайт (2%)
Title : E-AC3 (Dolby Digital Plus) 2.0 ch, 224 kbps
Language : English
Default : Нет
Forced : Нет
Текст #1
ID : 7
Format : UTF-8
Codec ID : S_TEXT/UTF8
Codec ID/Info : UTF-8 Plain Text
Language : Russian
Default : Нет
Forced : Нет
Текст #2
ID : 8
Format : UTF-8
Codec ID : S_TEXT/UTF8
Codec ID/Info : UTF-8 Plain Text
Language : English
Default : Нет
Forced : Нет

Скриншоты

Скриншоты сравнения

igrok2012 | [url=viewtopic.php?t=4789283]Dreven[/url]


_________________
Показать сообщения:    

Текущее время: Сегодня 15:06

Часовой пояс: GMT



Вы не можете начинать темы
Вы не можете отвечать на сообщения
Вы не можете редактировать свои сообщения
Вы не можете удалять свои сообщения
Вы не можете голосовать в опросах
Вы не можете прикреплять файлы к сообщениям
Вы не можете скачивать файлы