Важное объявление!
У Нас Все раздачи мультитрекерные, при нуле пиров в релизах, можете смело вставать на закачку!
 
Автор Сообщение

димитри37

Стаж:
3 года 8 месяцев
Сообщений:
1237

Репутация: 127

[+] [-]
Вне форума [Профиль] [ЛС]

Неуловимые / Red Dawn
Название: Неуловимые
Оригинальное название: Red Dawn
Страна: США
Жанр: боевик
Год выпуска: 2012
Продолжительность: 01:33:00
Перевод: Профессиональный (дублированный)
Cубтитры: нет
Режиссер: Дэн Брэдли / Dan Bradley
В ролях: Крис Хемсворт, Джош Пек, Джош Хатчерсон, Эдрианн Палики, Изабель Лукас, Коннор Круз, Эдвин Ходж, Бретт Каллен, Алисса Диаз, Джулиан Алькараз
Описание: Недалекое будущее. Новый тип оружия сделал даже крупнейшие сверхдержавы беспомощными перед массированным вторжением войск противника. Теперь война пришла в каждый дом. Восемь обычных американских парней и девушек решают не сдаваться без боя. Они организовывают отряд сопротивления «Росомахи». Их миссия — создавать хаос. От их смекалки и силы духа будет зависеть, есть ли у мира шанс пережить красный рассвет Третьей Мировой Войны
Качество видео: BDRip
Формат видео: MKV
Видео: 1024x426, 23.976, AVC MPEG4, 2 447 Kbps
Аудио: 48.0 KHz, AC-3, 6 ch, ~448 Kbps avg

MediaInfo

D:\Фильмы\Neulovimye.2012.x264.BDRip.(AVC).fanatus.mkv
General
Complete name : D:\Фильмы\Neulovimye.2012.x264.BDRip.(AVC).fanatus.mkv
Format : Matroska
File size : 2.18 GiB
Duration : 1h 33mn
Overall bit rate : 3 345 Kbps
Movie name : Red Dawn (2012) - fanatus
Encoded date : UTC 2013-04-22 05:17:41
Writing application : mkvmerge v3.4.0 ('Rapunzel') сборка от May 15 2010 09:38:20
Writing library : libebml v0.8.0 + libmatroska v0.9.0
Video #1
ID : 1
Format : AVC
Format/Info : Advanced Video Codec
Format profile : High@L4.1
Format settings, CABAC : Yes
Format settings, ReFrames : 10 frames
Muxing mode : Container profile=Unknown@4.1
Codec ID : V_MPEG4/ISO/AVC
Duration : 1h 33mn
Bit rate : 2 447 Kbps
Width : 1 024 pixels
Height : 426 pixels
Display aspect ratio : 2.40:1
Frame rate : 23.976 fps
Color space : YUV
Chroma subsampling : 4:2:0
Bit depth : 8 bits
Scan type : Progressive
Bits/(Pixel*Frame) : 0.234
Stream size : 1.55 GiB (71%)
Title : Red Dawn (2012)
Writing library : x264 core 130 r2273 b3065e6
Encoding settings : cabac=1 / ref=10 / deblock=1:-3:-3 / analyse=0x3:0x113 / me=umh / subme=11 / psy=1 / psy_rd=0.95:0.05 / mixed_ref=1 / me_range=48 / chroma_me=1 / trellis=2 / 8x8dct=1 / cqm=0 / deadzone=21,11 / fast_pskip=0 / chroma_qp_offset=-3 / threads=16 / lookahead_threads=3 / sliced_threads=0 / nr=0 / decimate=0 / interlaced=0 / bluray_compat=0 / constrained_intra=0 / bframes=12 / b_pyramid=2 / b_adapt=2 / b_bias=0 / direct=3 / weightb=1 / open_gop=0 / weightp=2 / keyint=240 / keyint_min=23 / scenecut=40 / intra_refresh=0 / rc_lookahead=240 / rc=2pass / mbtree=0 / bitrate=2447 / ratetol=1.0 / qcomp=0.70 / qpmin=0 / qpmax=69 / qpstep=4 / cplxblur=20.0 / qblur=0.5 / vbv_maxrate=50000 / vbv_bufsize=62500 / nal_hrd=none / ip_ratio=1.40 / pb_ratio=1.30 / aq=1:0.95 / zones=127111,133975,q=33
Language : English
Audio #2
ID : 2
Format : AC-3
Format/Info : Audio Coding 3
Mode extension : CM (complete main)
Codec ID : A_AC3
Duration : 1h 33mn
Bit rate mode : Constant
Bit rate : 448 Kbps
Channel(s) : 6 channels
Channel positions : Front: L C R, Side: L R, LFE
Sampling rate : 48.0 KHz
Stream size : 299 MiB (13%)
Title : Dub
Language : Russian
Audio #3
ID : 3
Format : AC-3
Format/Info : Audio Coding 3
Mode extension : CM (complete main)
Codec ID : A_AC3
Duration : 1h 33mn
Bit rate mode : Constant
Bit rate : 448 Kbps
Channel(s) : 6 channels
Channel positions : Front: L C R, Side: L R, LFE
Sampling rate : 48.0 KHz
Stream size : 299 MiB (13%)
Title : Original
Language : English
Text #4
ID : 4
Format : UTF-8
Codec ID : S_TEXT/UTF8
Codec ID/Info : UTF-8 Plain Text
Title : Blu-ray
Language : Russian
Text #5
ID : 5
Format : UTF-8
Codec ID : S_TEXT/UTF8
Codec ID/Info : UTF-8 Plain Text
Title : Full
Language : English
Text #6
ID : 6
Format : UTF-8
Codec ID : S_TEXT/UTF8
Codec ID/Info : UTF-8 Plain Text
Title : SDH
Language : English
Text #7
ID : 7
Format : UTF-8
Codec ID : S_TEXT/UTF8
Codec ID/Info : UTF-8 Plain Text
Title : SDH Colored
Language : English

Скриншоты

-
Показать сообщения:    

Текущее время: Сегодня 17:47

Часовой пояс: GMT



Вы не можете начинать темы
Вы не можете отвечать на сообщения
Вы не можете редактировать свои сообщения
Вы не можете удалять свои сообщения
Вы не можете голосовать в опросах
Вы не можете прикреплять файлы к сообщениям
Вы не можете скачивать файлы