Важное объявление!
У Нас Все раздачи мультитрекерные, при нуле пиров в релизах, можете смело вставать на закачку!
 
Автор Сообщение

HUNTER

Стаж:
4 года 4 месяца
Сообщений:
56839

Репутация: 101

[+] [-]
Вне форума [Профиль] [ЛС]

Неукротимые сердца / All the Pretty Horses
Страна: США
Студия: Columbia Pictures Corporation, Miramax
Жанр: драма, вестерн
Год выпуска: 2000
Продолжительность: 01:57:01
Перевод 1: Профессиональный (многоголосый закадровый)
Перевод 2: Одноголосый закадровый
Cубтитры: русские, английские
Оригинальная аудиодорожка: английский
Режиссер: Билли Боб Торнтон / Billy Bob Thornton
В ролях: Мэтт Дэймон, Генри Томас, Пенелопа Крус, Дж.Д. Янг, Лаура По, Анджелина Торрес, Лора По, Сэм Шепард, Роберт Патрик, Лукас Блэк, Иветт Диас, Огастин Солис, Рубен Блэйдс, Элизабет Ибарра, Мириам Колон…
Описание: Двое молодых ковбоев – Джон Грэди Коул и Лэйси Роулинс – покидают родной Техас ради поиска приключений и новых друзей в Мексике. И, конечно, с легкостью находят и то, и другое в этом красивом и суровом краю. Там, в прериях, где пасутся стада прекрасных диких мустангов, Коул безоглядно влюбляется в дочь богатого ранчеро. Но связь гринго и мексиканки – это табу. Не в силах обуздать свою страсть, Коул навлекает на себя, свою любовь и своих друзей смертельную опасность…
II Сэмпл II IMDB II
Доп. информация:
За многоголоску спасибо dima7272
За одноголосый перевод спасибо dvabaks
Тип релиза: WEB-DL 720p
Контейнер: MKV
Видео: AVC / 1280x542 / 2.35:1 / 23.976fps / Bit rate 3894Kbps
Аудио 1: AC3 / 48.0 KHz / 6ch. / 448kbps / rus / mvo
Аудио 2: AC3 / 48.0 KHz / 6ch. / 448kbps / rus / vo
Аудио 3: AC3 / 48.0 KHz / 6ch. / 384kbps / eng
Формат субтитров: softsub (SRT)

MediaInfo

Общее
Уникальный идентификатор : 250160665547725844287136904093463840818 (0xBC33311131D8F346B758BDCBC0D18832)
Полное имя : G:\!!!_torrent\All.the.Pretty.Horses.2000.WEB-DL.720p_by_vedigo.mkv
Формат : Matroska
Версия формата : Version 4 / Version 2
Размер файла : 4,32 Гбайт
Продолжительность : 1 ч. 57 м.
Общий поток : 5279 Кбит/сек
Название фильма : All.the.Pretty.Horses.2000.WEB-DL.720p_by_vedigo
Дата кодирования : UTC 2015-08-31 06:22:27
Программа кодирования : mkvmerge v8.3.0 ('Over the Horizon') 64bit
Библиотека кодирования : libebml v1.3.1 + libmatroska v1.4.2
DURATION : 01:55:50.829000000
NUMBER_OF_FRAMES : 1386
NUMBER_OF_BYTES : 39510
_STATISTICS_WRITING_APP : mkvmerge v8.3.0 ('Over the Horizon') 64bit
_STATISTICS_WRITING_DATE_UTC : 2015-08-31 06:22:27
_STATISTICS_TAGS : BPS DURATION NUMBER_OF_FRAMES NUMBER_OF_BYTES
Видео
Идентификатор : 1
Формат : AVC
Формат/Информация : Advanced Video Codec
Профиль формата : Main@L3.1
Параметр CABAC формата : Нет
Параметр ReFrames формата : 2 кадра
Идентификатор кодека : V_MPEG4/ISO/AVC
Продолжительность : 1 ч. 57 м.
Битрейт : 3894 Кбит/сек
Ширина : 1280 пикселей
Высота : 542 пикселя
Соотношение сторон : 2,35:1
Режим частоты кадров : Постоянный
Частота кадров : 23,976 кадра/сек
Цветовое пространство : YUV
Субдискретизация насыщенности : 4:2:0
Битовая глубина : 8 бит
Тип развёртки : Прогрессивная
Бит/(Пиксели*Кадры) : 0.234
Размер потока : 3,18 Гбайт (74%)
Заголовок : All.the.Pretty.Horses.2000.WEB-DL.720p_by_vedigo
Default : Да
Forced : Нет
Цветовой диапазон : Limited
Основные цвета : BT.709
Характеристики трансфера : BT.709
Коэффициенты матрицы : BT.709
Аудио #1
Идентификатор : 2
Формат : AC-3
Формат/Информация : Audio Coding 3
Расширение режима : CM (complete main)
Параметр Endianness формата : Big
Идентификатор кодека : A_AC3
Продолжительность : 1 ч. 57 м.
Вид битрейта : Постоянный
Битрейт : 448 Кбит/сек
Каналы : 6 каналов
Расположение каналов : Front: L C R, Side: L R, LFE
Частота : 48,0 КГц
Метод сжатия : С потерями
Размер потока : 375 Мбайт (8%)
Заголовок : MVO
Язык : Russian
Default : Да
Forced : Нет
Аудио #2
Идентификатор : 3
Формат : AC-3
Формат/Информация : Audio Coding 3
Расширение режима : CM (complete main)
Параметр Endianness формата : Big
Идентификатор кодека : A_AC3
Продолжительность : 1 ч. 57 м.
Вид битрейта : Постоянный
Битрейт : 448 Кбит/сек
Каналы : 6 каналов
Расположение каналов : Front: L C R, Side: L R, LFE
Частота : 48,0 КГц
Метод сжатия : С потерями
Размер потока : 375 Мбайт (8%)
Заголовок : VO
Язык : Russian
Default : Нет
Forced : Нет
Аудио #3
Идентификатор : 4
Формат : AC-3
Формат/Информация : Audio Coding 3
Расширение режима : CM (complete main)
Параметр Endianness формата : Big
Идентификатор кодека : A_AC3
Продолжительность : 1 ч. 57 м.
Вид битрейта : Постоянный
Битрейт : 384 Кбит/сек
Каналы : 6 каналов
Расположение каналов : Front: L C R, Side: L R, LFE
Частота : 48,0 КГц
Метод сжатия : С потерями
Размер потока : 321 Мбайт (7%)
Заголовок : original
Язык : English
Default : Нет
Forced : Нет
Текст #1
Идентификатор : 5
Формат : UTF-8
Идентификатор кодека : S_TEXT/UTF8
Идентификатор кодека/Информация : UTF-8 Plain Text
Заголовок : subtitle rus
Язык : Russian
Default : Нет
Forced : Нет
Текст #2
Идентификатор : 6
Формат : UTF-8
Идентификатор кодека : S_TEXT/UTF8
Идентификатор кодека/Информация : UTF-8 Plain Text
Заголовок : subtitle eng
Язык : English
Default : Нет
Forced : Нет
Меню
00:00:00.000 : en:1
00:09:13.000 : en:2
00:12:57.000 : en:3
00:18:18.000 : en:4
00:24:06.000 : en:5
00:31:14.000 : en:6
00:38:14.000 : en:7
00:49:07.000 : en:8
00:57:18.000 : en:9
01:02:21.000 : en:10
01:11:29.000 : en:11
01:21:16.000 : en:12
01:30:48.000 : en:13
01:41:58.000 : en:14
01:46:55.000 : en:15
01:51:39.000 : en:16

Скриншоты



_________________
Показать сообщения:    

Текущее время: Сегодня 00:46

Часовой пояс: GMT



Вы не можете начинать темы
Вы не можете отвечать на сообщения
Вы не можете редактировать свои сообщения
Вы не можете удалять свои сообщения
Вы не можете голосовать в опросах
Вы не можете прикреплять файлы к сообщениям
Вы не можете скачивать файлы