Важное объявление!
У Нас Все раздачи мультитрекерные, при нуле пиров в релизах, можете смело вставать на закачку!
 
Автор Сообщение

HUNTER

Стаж:
4 года 4 месяца
Сообщений:
56829

Репутация: 101

[+] [-]
Вне форума [Профиль] [ЛС]

Неуклюжая / Awkward
Год выпуска: 2011
Страна: CША
Жанр: комедия, мелодрама
Продолжительность: ~ 00:20:00
Перевод: Любительский (одноголосый закадровый) [Nothanks Creations]
Русские субтитры: нет
Субтитры: нет
Режиссёр: Дэвид Катценберг, Райан Шираки / David Katzenberg, Ryan Shiraki
В ролях: Эшли Рикардс (Ashley Rickards), Джиллиан Роуз Рид (Jillian Rose Reed), Бо Мирчофф (Beau Mirchoff), Никки Делоач (Nikki Deloach), Бретт Даверн (Brett Davern), Молли Тарлов (Molly Tarlov), Деси Лидик (Desi Lydic), Джессика Лу (Jessica Lu), Грир Граммер (Greer Grammer), Майк Файола (Mike Faiola)
Описание: Наверное, многие из нас уже не помнят то время, когда на нашу голову свалился переходный возраст, со всеми его прелестями и недостатками. Кто-то вспомнит из школьных времен свой выпускной вечер, первый поцелуй, распитие спиртных напитков в подворотне или чего еще. Данный сериал, пускай и в слегка гиперболизированной форме, показывает жизнь не особо популярного подростка Дженны Хэмилтон, которая несмотря на многочисленные падения, все же справляется с нелегкой школьной жизнью.
Сэмпл: http://narod.ru/disk/24840489001/awkwardsampleNC.avi.html
Качество: HDRip
Формат: AVI
Видео кодек: XviD
Аудио кодек: MP3
Видео: MPEG-4 (Xvid), 624x352 (16:9), 23.976fps ~ 1 019 Kbps
Аудио: MPEG Audio Layer 3, 44 kHz, stereo, 192 kbps [Русский, Nothanks Creations]

Рейтинг

Список серий

1 - Пилотная серия (Pilot).
2 - Кошмар на улице сисек (Knocker's Nightmare).
3 - Определяя отношения (The Way We Weren't)
4 - Что с моим глазом, чувак? (The Scarlet Eye)
5 - Дженна, которая живет (Jenna Lives)
6 - Популярные сучки (Queen Bee-atches)
7 - Только через мой труп (Over my Dead Body)
8 - Поцелуй навылет (Adventures of Aunt Ally and Lil' Bitch)
9 - Где мои шестнадцать лет? (My Super Bittersweet Sixteen)
10 - Кризис доверия (No Doubt)
12 - Я - Дженна Хэмилтон (I am Jenna Hamilton)

Отчёт MediaInfo

General
Complete name : C:\Awkward Сезон 1 (Nothanks Creations)\Awkward.S01E03.The Way We Weren't (Nothanks Creations).avi
Format : AVI
Format/Info : Audio Video Interleave
File size : 179 MiB
Duration : 20mn 31s
Overall bit rate : 1 221 Kbps
Writing application : VirtualDubMod 1.5.4.1 (build 2178/release)
Writing library : VirtualDubMod build 2178/release
Video
ID : 0
Format : MPEG-4 Visual
Format profile : Advanced Simple@L5
Format settings, BVOP : 2
Format settings, QPel : No
Format settings, GMC : No warppoints
Format settings, Matrix : Default (H.263)
Codec ID : XVID
Codec ID/Hint : XviD
Duration : 20mn 31s
Bit rate : 1 019 Kbps
Width : 624 pixels
Height : 352 pixels
Display aspect ratio : 16:9
Frame rate : 23.976 fps
Color space : YUV
Chroma subsampling : 4:2:0
Bit depth : 8 bits
Scan type : Progressive
Compression mode : Lossy
Bits/(Pixel*Frame) : 0.194
Stream size : 150 MiB (83%)
Writing library : XviD 1.2.1 (UTC 2008-12-04)
Audio
ID : 1
Format : MPEG Audio
Format version : Version 1
Format profile : Layer 3
Mode : Joint stereo
Codec ID : 55
Codec ID/Hint : MP3
Duration : 20mn 31s
Bit rate mode : Constant
Bit rate : 192 Kbps
Channel(s) : 2 channels
Sampling rate : 44.1 KHz
Compression mode : Lossy
Stream size : 28.2 MiB (16%)
Alignment : Split accross interleaves
Interleave, duration : 42 ms (1.00 video frame)
Interleave, preload duration : 500 ms

Скриншоты


_________________
Показать сообщения:    

Текущее время: Сегодня 17:05

Часовой пояс: GMT



Вы не можете начинать темы
Вы не можете отвечать на сообщения
Вы не можете редактировать свои сообщения
Вы не можете удалять свои сообщения
Вы не можете голосовать в опросах
Вы не можете прикреплять файлы к сообщениям
Вы не можете скачивать файлы