Важное объявление!
У Нас Все раздачи мультитрекерные, при нуле пиров в релизах, можете смело вставать на закачку!
 
Автор Сообщение

HUNTER

Стаж:
4 года 4 месяца
Сообщений:
56749

Репутация: 101

[+] [-]
Вне форума [Профиль] [ЛС]

Неудержимые 3 / The Expendables 3 / [Расширенная версия / Unrated]
Страна: США
Жанр: Боевик, триллер
Год выпуска: 2014
Продолжительность: 02:11:31
Перевод: Профессиональный (дублированный)
Перевод 2: Одноголосый закадровый Д.Есарев
Cубтитры: английские
Оригинальная аудиодорожка: английский
Режиссер: Патрик Хьюз / Patrick Hughes
В ролях: Сильвестр Сталлоне, Джейсон Стэйтем, Джет Ли, Антонио Бандерас, Уэсли Снайпс, Дольф Лундгрен, Мэл Гибсон, Харрисон Форд, Арнольд Шварценеггер, Келлан Латс, Терри Крюс, Сарай Гивати, Рэнди Кутюр, Ронда Раузи, Роберт Дави, Наталия Гуслистая, Виктор Ортис, Глен Пауэлл
Описание: Барни, Кристмас и остальные члены команды сходятся лицом к лицу с Конрадом Стоунбэнксом, многие годы назад основавшем вместе с Барни команду «Неудержимых». Впоследствии Стоунбэнкс становится безжалостным торговцем оружием и тем самым превращается в человека, которого Барни было поручено убить. Или по крайней мере он сам так считал. Теперь Стоунбэнкс, один раз уже сумевший обмануть смерть, поставил себе цель покончить с «Неудержимыми» — но у Барни на этот счет свои планы. Барни решает, что в его борьбе «свежий» подход можно противопоставить старым методам, и пополняет ряды людьми, которые моложе, быстрее и технически более подкованные. Так у членов команды «Неудержимых» начинается новая эра. Последняя миссия превращается в столкновение между представителями классической старой школы и экспертами в высоких технологиях.
Доп. информация: Перевод Дмитрия Есарева доступен благодаря пользователям "Переулка Переводмана": mihaildns, mihey10, Скажутин, dikii, будулайроманов, Прохожий, Loki1982, Mister X, Kruj0k, ZeDOK.
За доозвучку недостающих сцен расширенной версии спасибо непосредственно Д. Есареву.
Дубляж с BD Rus театральной версии. В непереведенных эпизодах вставлена озвучка Д.Есарева.

Тип релиза: BDRip 1080p
Контейнер: MKV
Видео: MPEG-4 AVC, 11.6 Мбит/с, 1920x800, 23,976 fps
Аудио: Rus, DTS, 1510 kb/s (6 ch), 48 kHz - Blu-ray RUS
Аудио 2: VO, DTS, 1510 kb/s (6 ch), 48 kHz - Д.Есарев
Аудио 3: Eng, DTS, 1510 kb/s (6 ch), 48 kHz
Аудио 4: Eng, AC3, 224 kb/s (2 ch), 48 kHz - Commentary English
Формат субтитров: softsub (SRT)

MediaInfo

Format : Matroska
Format version : Version 4 / Version 2
File size : 15.3 GiB
Duration : 2h 11mn
Overall bit rate : 16.7 Mbps
Movie name : Tonik
Encoded date : UTC 2014-11-22 17:47:59
Writing application : mkvmerge v7.1.0 ('Good Love') 64bit built on Jul 27 2014 13:06:55
Writing library : libebml v1.3.0 + libmatroska v1.4.1
DURATION : 02:11:31.478000000
NUMBER_OF_FRAMES : 739826
NUMBER_OF_BYTES : 1488529912
_STATISTICS_WRITING_APP : mkvmerge v7.1.0 ('Good Love') 64bit built on Jul 27 2014 13:06:55
_STATISTICS_WRITING_DATE_UTC : 2014-11-22 17:47:59
_STATISTICS_TAGS : BPS DURATION NUMBER_OF_FRAMES NUMBER_OF_BYTES
Video
ID : 1
Format : AVC
Format/Info : Advanced Video Codec
Format profile : High@L4.1
Format settings, CABAC : Yes
Format settings, ReFrames : 5 frames
Codec ID : V_MPEG4/ISO/AVC
Duration : 2h 11mn
Bit rate : 11.6 Mbps
Width : 1 920 pixels
Height : 800 pixels
Display aspect ratio : 2.40:1
Frame rate mode : Constant
Frame rate : 23.976 fps
Color space : YUV
Chroma subsampling : 4:2:0
Bit depth : 8 bits
Scan type : Progressive
Bits/(Pixel*Frame) : 0.314
Stream size : 10.6 GiB (69%)
Writing library : x264 core 129 r2230 1cffe9f
Encoding settings : cabac=1 / ref=5 / deblock=1:-3:-3 / analyse=0x3:0x113 / me=umh / subme=11 / psy=1 / psy_rd=0.90:0.05 / mixed_ref=1 / me_range=48 / chroma_me=1 / trellis=2 / 8x8dct=1 / cqm=0 / deadzone=21,11 / fast_pskip=0 / chroma_qp_offset=-3 / threads=36 / lookahead_threads=6 / sliced_threads=0 / nr=0 / decimate=0 / interlaced=0 / bluray_compat=0 / constrained_intra=0 / bframes=10 / b_pyramid=2 / b_adapt=2 / b_bias=0 / direct=3 / weightb=1 / open_gop=0 / weightp=2 / keyint=240 / keyint_min=24 / scenecut=40 / intra_refresh=0 / rc_lookahead=60 / rc=crf / mbtree=0 / crf=17.0 / qcomp=0.70 / qpmin=0 / qpmax=69 / qpstep=4 / vbv_maxrate=50000 / vbv_bufsize=40000 / crf_max=0.0 / nal_hrd=none / ip_ratio=1.25 / pb_ratio=1.20 / aq=1:0.85
Language : English
Default : Yes
Forced : No
DURATION : 02:11:31.509000000
NUMBER_OF_FRAMES : 189207
NUMBER_OF_BYTES : 11739145764
_STATISTICS_WRITING_APP : mkvmerge v7.1.0 ('Good Love') 64bit built on Jul 27 2014 13:06:55
_STATISTICS_WRITING_DATE_UTC : 2014-11-22 17:47:59
_STATISTICS_TAGS : BPS DURATION NUMBER_OF_FRAMES NUMBER_OF_BYTES
Audio #1
ID : 2
Format : DTS
Format/Info : Digital Theater Systems
Mode : 16
Format settings, Endianness : Big
Codec ID : A_DTS
Duration : 2h 11mn
Bit rate mode : Constant
Bit rate : 1 509 Kbps
Channel(s) : 6 channels
Channel positions : Front: L C R, Side: L R, LFE
Sampling rate : 48.0 KHz
Bit depth : 16 bits
Compression mode : Lossy
Stream size : 1.39 GiB (9%)
Language : Russian
Default : Yes
Forced : No
Audio #2
ID : 3
Format : DTS
Format/Info : Digital Theater Systems
Mode : 16
Format settings, Endianness : Big
Codec ID : A_DTS
Duration : 2h 11mn
Bit rate mode : Constant
Bit rate : 1 509 Kbps
Channel(s) : 6 channels
Channel positions : Front: L C R, Side: L R, LFE
Sampling rate : 48.0 KHz
Bit depth : 24 bits
Compression mode : Lossy
Stream size : 1.39 GiB (9%)
Title : Д.Есарев
Language : Russian
Default : No
Forced : No
Audio #3
ID : 4
Format : DTS
Format/Info : Digital Theater Systems
Mode : 16
Format settings, Endianness : Big
Codec ID : A_DTS
Duration : 2h 11mn
Bit rate mode : Constant
Bit rate : 1 509 Kbps
Channel(s) : 6 channels
Channel positions : Front: L C R, Side: L R, LFE
Sampling rate : 48.0 KHz
Bit depth : 24 bits
Compression mode : Lossy
Stream size : 1.39 GiB (9%)
Language : English
Default : No
Forced : No
Audio #4
ID : 5
Format : AC-3
Format/Info : Audio Coding 3
Format profile : Dolby Digital
Mode extension : CM (complete main)
Format settings, Endianness : Big
Codec ID : A_AC3
Duration : 2h 11mn
Bit rate mode : Constant
Bit rate : 224 Kbps
Channel(s) : 2 channels
Channel positions : Front: L R
Sampling rate : 48.0 KHz
Bit depth : 16 bits
Compression mode : Lossy
Stream size : 211 MiB (1%)
Title : Commentary English DD 2.0 @ 224 kbps
Language : English
Default : No
Forced : No
Text #1
ID : 6
Format : UTF-8
Codec ID : S_TEXT/UTF8
Codec ID/Info : UTF-8 Plain Text
Language : English
Default : No
Forced : No
Text #2
ID : 7
Format : UTF-8
Codec ID : S_TEXT/UTF8
Codec ID/Info : UTF-8 Plain Text
Title : SDH
Language : English
Default : No
Forced : No
Menu
00:00:00.000 : en:00:00:00.000
00:07:25.528 : en:00:07:25.528
00:13:00.029 : en:00:13:00.029
00:22:24.760 : en:00:22:24.760
00:30:12.102 : en:00:30:12.102
00:36:20.303 : en:00:36:20.303
00:42:31.424 : en:00:42:31.424
00:48:45.548 : en:00:48:45.548
00:55:37.709 : en:00:55:37.709
01:01:30.270 : en:01:01:30.270
01:12:07.573 : en:01:12:07.573
01:21:14.786 : en:01:21:14.786
01:30:10.655 : en:01:30:10.655
01:36:43.339 : en:01:36:43.339
01:47:47.628 : en:01:47:47.628
01:56:15.760 : en:01:56:15.760

Скриншоты

Не нужно срать в коментах по поводу скорости раздачи как здесь!

_________________
Показать сообщения:    

Текущее время: Сегодня 03:08

Часовой пояс: GMT



Вы не можете начинать темы
Вы не можете отвечать на сообщения
Вы не можете редактировать свои сообщения
Вы не можете удалять свои сообщения
Вы не можете голосовать в опросах
Вы не можете прикреплять файлы к сообщениям
Вы не можете скачивать файлы