Важное объявление!
У Нас Все раздачи мультитрекерные, при нуле пиров в релизах, можете смело вставать на закачку!
 
Автор Сообщение

HUNTER

Стаж:
4 года 4 месяца
Сообщений:
56808

Репутация: 101

[+] [-]
Вне форума [Профиль] [ЛС]

Несносный Деннис отправляется в круиз / Несносный Деннис против магии Вуду / Dennis the Menace in Cruise Control-
Страна: США
Жанр: мультфильм, комедия, приключения, семейный
Продолжительность: 01:14:07
Год выпуска: 2002
Перевод 1: Профессиональный (многоголосый закадровый) - Екатеринбург-Арт
Перевод 2: Профессиональный (дублированный) - KidsCo
Русские субтитры: нет-Режиссёр: Патрик А. Вентура / Patrick A. Ventura
Роли озвучивали: Том Арнольд, Пит Кронкит, Джим Бёрнс, Гари Чок, Джинни Илайас, Морис ЛаМарш, Мэрлин Лайтстоун, Ричард Ньюман, Табита Сен-Жермен, Ли Токар- | Релиз: -Описание: В поисках тишины и покоя сварливый сосед Денниса мистер Уилсон решил отправиться в морской круиз. Но все его мечты разбились о суровую реальность! Деннис и его семейка оказались на борту этого же самого круизного корабля.
А когда Деннису вздумалось протянуть руку помощи маленькой островной принцессе, которой грозят темные колдовские силы, и наказать двух мошенников, задумавших украсть ее кольцо, всем пришлось окончательно забыть об отдыхе. Потому что с Деннисом и его командой, когда они приступают к делу, не сравнится даже тропический ураган…-Доп. информация:
- За исходный DVD5 R1 Untoched диск спасибо newageofwar@BitHQ.
- Перевод "Екатеринбург-Арт" найден вконтакте, за перевод "KidsCo" спасибо afedrenkv.-Семпл: скачать-Качество: DVDRip-AVC
Формат: MKV
Видео: 718x480 (4:3) @ 638x480, 29.970 fps, AVC, ~1312 kbps, 0.124 bits/pixel
Аудио 1: Русский, AC3, 2/0 (L,R) ch, 192 kbps - многоголосый закадровый [Екатеринбург-Арт]
Аудио 2: Русский, AC3, 2/0 (L,R) ch, 192 kbps - дублированный [KidsCo]
Аудио 2: English, AC3, 2/0 (L,R) ch, 224 kbps
Субтитры: отсутствуют

MediaInfo

x264.log

x264 [info]: 718x480p 8:9 @ 30000/1001 fps (cfr)x264 [info]: using SAR=8/9x264 [info]: using cpu capabilities: MMX2 SSE2Fast SSSE3 SSE4.2 AVXx264 [info]: profile High, level 4.0x264 [info]: cabac=1 ref=16 deblock=1:-2:-1 analyse=0x3:0x133 me=umh subme=11 psy=1 fade_compensate=0.00 psy_rd=1.00:0.00 mixed_ref=1 me_range=48 chroma_me=1 trellis=2 8x8dct=1 cqm=0 deadzone=21,11 fast_pskip=0 chroma_qp_offset=-2 threads=12 lookahead_threads=3 sliced_threads=0 nr=0 decimate=1 interlaced=0 bluray_compat=0 constrained_intra=0 fgo=0 bframes=10 b_pyramid=2 b_adapt=2 b_bias=0 direct=3 weightb=1 open_gop=0 weightp=2 keyint=250 keyint_min=25 scenecut=40 intra_refresh=0 rc=crf mbtree=0 crf=18.0000 qcomp=0.60 qpmin=0 qpmax=69 qpstep=4 ip_ratio=1.40 pb_ratio=1.30 aq=1:0.90x264 [info]: frame I:1193 Avg QP:18.59 size: 42461x264 [info]: frame P:31773 Avg QP:19.51 size: 13869x264 [info]: frame B:100431 Avg QP:20.37 size: 2381x264 [info]: consecutive B-frames: 2.9% 4.1% 10.2% 21.7% 30.9% 23.3% 4.1% 1.6% 0.5% 0.4% 0.4%x264 [info]: mb I I16..4: 7.1% 67.8% 25.1%x264 [info]: mb P I16..4: 0.9% 5.4% 1.2% P16..4: 33.8% 28.3% 12.8% 1.7% 0.2% skip:15.9%x264 [info]: mb B I16..4: 0.1% 0.5% 0.1% B16..8: 25.5% 7.0% 1.4% direct: 2.2% skip:63.2% L0:38.8% L1:54.8% BI: 6.5%x264 [info]: 8x8 transform intra:71.4% inter:63.1%x264 [info]: direct mvs spatial:100.0% temporal:0.0%x264 [info]: coded y,uvDC,uvAC intra: 72.9% 80.8% 65.1% inter: 11.3% 18.4% 10.2%x264 [info]: i16 v,h,dc,p: 35% 24% 14% 27%x264 [info]: i8 v,h,dc,ddl,ddr,vr,hd,vl,hu: 9% 8% 16% 11% 11% 10% 11% 11% 13%x264 [info]: i4 v,h,dc,ddl,ddr,vr,hd,vl,hu: 15% 12% 10% 9% 12% 10% 11% 9% 11%x264 [info]: i8c dc,h,v,p: 37% 28% 25% 9%x264 [info]: Weighted P-Frames: Y:2.5% UV:2.1%x264 [info]: ref P L0: 48.6% 6.0% 15.5% 4.9% 4.3% 3.6% 3.5% 1.9% 1.8% 1.6% 1.6% 1.5% 1.5% 1.4% 1.3% 1.0%x264 [info]: ref B L0: 71.9% 11.6% 4.5% 2.3% 1.7% 1.6% 1.3% 0.9% 0.7% 0.7% 0.6% 0.7% 0.6% 0.4% 0.4%x264 [info]: ref B L1: 93.0% 7.0%x264 [info]: kb/s:1312.81x264 [info]: encoded 133397 frames, 11.39 fps, 1312.81 kb/s, duration 3:15:15.39
GeneralUnique ID : 235110003396762286659484749053055973237 (0xB0E08A21B2863EE0A073E57B7FC7B775)Complete name : E:\VIDEO_Mult\Dennis.the.Menace.in.Cruise.Control.2002.DVDRip.rutracker-xfiles.mkvFormat : MatroskaFormat version : Version 4 / Version 2File size : 1 021 MiBDuration : 1h 14mnOverall bit rate : 1 923 KbpsMovie name : Dennis.the.Menace.in.Cruise.Control.2002.DVDRip.rutracker-xfilesEncoded date : UTC 2014-04-19 18:53:11Writing application : mkvmerge v6.9.1 ('Blue Panther') 64bit built on Apr 18 2014 18:23:38Writing library : libebml v1.3.0 + libmatroska v1.4.1
VideoID : 1Format : AVCFormat/Info : Advanced Video CodecFormat profile : High@L4.0Format settings, CABAC : YesFormat settings, ReFrames : 16 framesCodec ID : V_MPEG4/ISO/AVCDuration : 1h 14mnBit rate : 1 277 KbpsWidth : 718 pixelsHeight : 480 pixelsDisplay aspect ratio : 4:3Frame rate mode : ConstantFrame rate : 29.970 fpsColor space : YUVChroma subsampling : 4:2:0Bit depth : 8 bitsScan type : ProgressiveBits/(Pixel*Frame) : 0.124Stream size : 678 MiB (66%)Title : http://rutracker.org/forum/viewtopic.php?t=4720387Writing library : x264 core 142 r2409kMod d6b4e63Encoding settings : cabac=1 / ref=16 / deblock=1:-2:-1 / analyse=0x3:0x133 / me=umh / subme=11 / psy=1 / fade_compensate=0.00 / psy_rd=1.00:0.00 /mixed_ref=1 / me_range=48 / chroma_me=1 / trellis=2 / 8x8dct=1 / cqm=0 / deadzone=21,11 / fast_pskip=0 / chroma_qp_offset=-2 / threads=12 / lookahead_threads=3 /sliced_threads=0 / nr=0 / decimate=1 / interlaced=0 / bluray_compat=0 / constrained_intra=0 / fgo=0 / bframes=10 / b_pyramid=2 / b_adapt=2 / b_bias=0 / direct=3 /weightb=1 / open_gop=0 / weightp=2 / keyint=250 / keyint_min=25 / scenecut=40 / intra_refresh=0 / rc=crf / mbtree=0 / crf=18.0000 / qcomp=0.60 / qpmin=0 /qpmax=69 / qpstep=4 / ip_ratio=1.40 / pb_ratio=1.30 / aq=1:0.90Language : EnglishDefault : YesForced : NoColor primaries : BT.601 NTSCTransfer characteristics : BT.601Matrix coefficients : BT.601
Audio #1ID : 2Format : AC-3Format/Info : Audio Coding 3Mode extension : CM (complete main)Format settings, Endianness : BigCodec ID : A_AC3Duration : 1h 14mnBit rate mode : ConstantBit rate : 192 KbpsChannel(s) : 2 channelsChannel positions : Front: L RSampling rate : 48.0 KHzBit depth : 16 bitsCompression mode : LossyStream size : 102 MiB (10%)Title : Многоголосый закадровый | Екатеринбург-АртLanguage : RussianDefault : YesForced : No
Audio #2ID : 3Format : AC-3Format/Info : Audio Coding 3Mode extension : CM (complete main)Format settings, Endianness : BigCodec ID : A_AC3Duration : 1h 14mnBit rate mode : ConstantBit rate : 192 KbpsChannel(s) : 2 channelsChannel positions : Front: L RSampling rate : 48.0 KHzBit depth : 16 bitsCompression mode : LossyStream size : 102 MiB (10%)Title : Дублированный | KidsCoLanguage : RussianDefault : NoForced : No
Audio #3ID : 4Format : AC-3Format/Info : Audio Coding 3Mode extension : CM (complete main)Format settings, Endianness : BigCodec ID : A_AC3Duration : 1h 14mnBit rate mode : ConstantBit rate : 224 KbpsChannel(s) : 2 channelsChannel positions : Front: L RSampling rate : 48.0 KHzBit depth : 16 bitsCompression mode : LossyStream size : 119 MiB (12%)Title : OriginalLanguage : EnglishDefault : NoForced : No
Menu00:00:00.000 : 01. Opening00:06:49.476 : 02. Cruise00:11:54.847 : 03. Three Whole Weeks00:15:29.562 : 04. The Captain's Table00:19:25.097 : 05. Meeting Liana00:24:53.025 : 06. The Ruby Ring00:33:17.062 : 07. Hypnotized00:40:16.080 : 08. The Parade00:46:36.060 : 09. Locked Up00:53:55.032 : 10. The Escape01:02:17.334 : 11. More Company01:07:07.524 : 12. Powerless01:12:12.028 : 13. Back At Home01:13:25.334 : 14. End Credits

_________________
Показать сообщения:    

Текущее время: Сегодня 11:16

Часовой пояс: GMT



Вы не можете начинать темы
Вы не можете отвечать на сообщения
Вы не можете редактировать свои сообщения
Вы не можете удалять свои сообщения
Вы не можете голосовать в опросах
Вы не можете прикреплять файлы к сообщениям
Вы не можете скачивать файлы