Важное объявление!
У Нас Все раздачи мультитрекерные, при нуле пиров в релизах, можете смело вставать на закачку!
 
Автор Сообщение

димитри37

Стаж:
3 года 9 месяцев
Сообщений:
1237

Репутация: 127

[+] [-]
Вне форума [Профиль] [ЛС]

Несмертный грех / Грех, достойный прощения
Peccato Veniale / Lovers and Other Relatives

Страна: Италия
Жанр: эротика, подростковая тема
Год выпуска: 1973
Продолжительность: 01:32:31 !!! Американская версия
Перевод: Одноголосый закадровый
Cубтитры: нет
Режиссер: Сальваторе Сампери / Salvatore Samperi
В ролях: Лаура Антонелли. Алессандро Момо, Орацио Орландо, Лилла Бриньоне, Тино Карраро, Моника Гуэрриторе, Лино Тоффоло, Стефано Амато, Лино Банфи, Доминик Бошеро.
Описание: Очень часто подростки мечтают о сексе с женщиной, старше их. Сандро удалось затащить в постель жену старшего брата.
На приморском курорте, куда старший брат привез свою девушку перед свадьбой, для того чтобы она там отдохнула вместе с его семьей, его младший брат должен был проследить за нравственностью будущей жены старшего.
И во время летнего отдыха происходит масса событий - веселых и нелепых - с главными героями, друзьями младшего брата, семейством, отдыхающими.
История любви Алессандро к Лауре показана достаточно правдоподобно, учитывая взросление парня и обстоятельства совместного проживания и времяпровождения.
Легкий итальянский летний фильм.

Качество видео: VHSRip
Формат видео: AVI
Видео: 576x352 (1.64:1), 25 fps, XviD build 47 ~987 kbps avg, 0.19 bit/pixel
Аудио: 48 kHz, MPEG Layer 3, 2 ch, ~128.00 kbps avg

MediaInfo

Грех, достойный прощения - Peccato veniale [rip by alenavova].avi
Format : AVI
Format/Info : Audio Video Interleave
File size : 745 MiB
Duration : 1h 32mn
Overall bit rate : 1 125 Kbps
Movie name : Грех, достойный прощения - Peccato veniale [rip by alenavova]
Director : Rip by alenavova
Writing application : FairUse Wizard - http://fairusewizard.com
Copyright : Edich2
Comment : RuTracker.org
Video
ID : 0
Format : MPEG-4 Visual
Format profile : Advanced Simple@L5
Format settings, BVOP : 1
Format settings, QPel : No
Format settings, GMC : No warppoints
Format settings, Matrix : Default (H.263)
Codec ID : XVID
Codec ID/Hint : XviD
Duration : 1h 32mn
Bit rate : 987 Kbps
Width : 576 pixels
Height : 352 pixels
Display aspect ratio : 1.636
Frame rate : 25.000 fps
Color space : YUV
Chroma subsampling : 4:2:0
Bit depth : 8 bits
Scan type : Progressive
Compression mode : Lossy
Bits/(Pixel*Frame) : 0.195
Stream size : 653 MiB (88%)
Writing library : XviD 1.2.0.dev47 (UTC 2006-11-01)
Audio
ID : 1
Format : MPEG Audio
Format version : Version 1
Format profile : Layer 3
Mode : Joint stereo
Mode extension : MS Stereo
Codec ID : 55
Codec ID/Hint : MP3
Duration : 1h 32mn
Bit rate mode : Constant
Bit rate : 128 Kbps
Channel(s) : 2 channels
Sampling rate : 48.0 KHz
Compression mode : Lossy
Stream size : 84.7 MiB (11%)
Alignment : Aligned on interleaves
Interleave, duration : 40 ms (1.00 video frame)
Interleave, preload duration : 504 ms
Writing library : LAME3.97
Encoding settings : -m j -V 4 -q 2 -lowpass 17 -b 128

Скриншоты


-
Показать сообщения:    

Текущее время: Сегодня 08:48

Часовой пояс: GMT



Вы не можете начинать темы
Вы не можете отвечать на сообщения
Вы не можете редактировать свои сообщения
Вы не можете удалять свои сообщения
Вы не можете голосовать в опросах
Вы не можете прикреплять файлы к сообщениям
Вы не можете скачивать файлы