Важное объявление!
У Нас Все раздачи мультитрекерные, при нуле пиров в релизах, можете смело вставать на закачку!
 
Автор Сообщение

mihis

[Профиль] [ЛС]

Несколько хороших парней / A Few Good Men
Год выпуска: 1992
Страна: США, Columbia Pictures, Castle Rock Entertainment
Жанр: Триллер, драма, криминал, детектив
Продолжительность: 02:17:24
Перевод: Профессиональный (полное дублирование) + Профессиональный (многоголосый, закадровый) + Авторский (одноголосый, закадровый) А. Гаврилов, Л. Володарский, С. Кузнецов + Оригинал
Субтитры: Нет
Режиссер: Роб Райнер
В ролях: Том Круз, Деми Мур, Кевин Поллак, Джек Николсон, Кевин Бэйкон, Кифер Сазерленд, Джеймс Маршалл, Вольфганг Бодисон, Дж.Т. Уолш, Кьюба Гудинг мл., Ксандер Беркли, Мэтт Крэвен, Кристофер Гест, Дж.А. Престон, Джон М. Джексон, Ноа Уайли, Лоуренс Лоу, Джошуа Малина, Оскар Джордан, Джон М. Мэтьюз, Аарон Соркин, Алекс Вексо
Описание: Два морпеха предстают перед судом за незаконную расправу над своим товарищем. Участь защищать их выпадает на долю молодого самоуверенного потомственного адвоката, который явно предпочитает бейсбол жестким играм закона. Однако дело оказывается не таким простым, как ему казалось, и он решает раскрыть тайну жестоких убийств и наказать тех, кто несет ответственность за смерть солдата, чего бы ему это не стоило. Бросив вызов сильным мира сего, он рискует всем -своей карьерой, спокойным существованием, любимой женщиной и даже жизнью, ведь те, у кого он встал на пути, не остановятся не перед чем. Но чтобы победить в этом противостоянии, прежде всего ему надо победить себя, свои самые глубинные страхи…

Качество: BDRip-AVC
Формат: MKV
Видео кодек: H.264
Аудио кодек: AC3
Видео: AVC, 1024x436 (2.35:1), 23.976 fps, 2 459 Kbps (0.230 bit/pixel)
Аудио #1: AC3, 48.0 KHz, 6 ch, 448 Kbps, CBR MVO
Аудио #2: AC3, 48.0 KHz, 2 ch, 128 Kbps, CBR Dub
Аудио #3: AC3, 48.0 KHz, 6 ch, 448 Kbps, CBR А.Гаврилов
Аудио #4: AC3, 48.0 KHz, 2 ch, 192 Kbps, CBR Л. Володарский
Аудио #5: AC3, 48.0 KHz, 2 ch, 128 Kbps, CBR С. Кузнецов
Аудио #6: AC3, 48.0 KHz, 6 ch, 384 Kbps, CBR Eng

Награды

Оскар, 1993 год
Номинации (4):
Лучший фильм
Лучшая мужская роль второго плана (Джек Николсон)
Лучший звук
Лучший монтаж
Золотой глобус, 1993 год
Номинации (5):
Лучший фильм (драма)
Лучшая мужская роль (драма) (Том Круз)
Лучшая мужская роль второго плана (Джек Николсон)
Лучший режиссер (Роб Райнер)
Лучший сценарий
Премия канала «MTV», 1993 год
Победитель (1):
Лучший фильм
Номинации (5):
Лучшая мужская роль (Джек Николсон)
Лучшая мужская роль (Том Круз)
Лучшая женская роль (Деми Мур)
Самый желанный мужчина (Том Круз)
Лучший злодей (Джек Николсон)

MediaInfo

Общее
Уникальный идентификатор : 181559176448829512204249056138441431660 (0x889706848DBE08238280D06E059E9A6C)
Полное имя : D:\Video\Neskolko.horoshih.parnej.1992.x264.BDRip.(AVC).mkv
Формат : Matroska
Версия формата : Version 2
Размер файла : 4,02 Гбайт
Продолжительность : 2 ч. 17 м.
Общий поток : 4191 Кбит/сек
Дата кодирования : UTC 2012-07-24 16:20:46
Программа кодирования : mkvmerge v5.7.0 ('The Whirlwind') built on Jul 8 2012 20:08:51
Библиотека кодирования : XviD4PSP 6.0 / 54.14.100
Видео
Идентификатор : 1
Формат : AVC
Формат/Информация : Advanced Video Codec
Профиль формата : High@L4.1
Параметр CABAC формата : Да
Параметр ReFrames формата : 7 кадров
Идентификатор кодека : V_MPEG4/ISO/AVC
Продолжительность : 2 ч. 17 м.
Битрейт : 2459 Кбит/сек
Ширина : 1024 пикселя
Высота : 436 пикселей
Соотношение сторон : 2,35:1
Режим частоты кадров : Постоянный
Частота кадров : 23,976 кадра/сек
Цветовое пространство : YUV
Субдискретизация насыщенности : 4:2:0
Битовая глубина : 8 бит
Тип развёртки : Прогрессивная
Бит/(Пиксели*Кадры) : 0.230
Размер потока : 2,28 Гбайт (57%)
Библиотека кодирования : x264 core 125 r2200M 999b753
Настройки программы : cabac=1 / ref=8 / deblock=1:-1:-1 / analyse=0x3:0x133 / me=umh / subme=10 / psy=1 / psy_rd=1.00:0.15 / mixed_ref=1 / me_range=32 / chroma_me=1 / trellis=2 / 8x8dct=1 / cqm=0 / deadzone=6,6 / fast_pskip=1 / chroma_qp_offset=-3 / threads=2 / lookahead_threads=1 / sliced_threads=0 / nr=0 / decimate=0 / interlaced=0 / bluray_compat=0 / constrained_intra=0 / bframes=7 / b_pyramid=1 / b_adapt=2 / b_bias=0 / direct=3 / weightb=1 / open_gop=0 / weightp=2 / keyint=230 / keyint_min=23 / scenecut=40 / intra_refresh=0 / rc_lookahead=40 / rc=2pass / mbtree=1 / bitrate=2459 / ratetol=1.0 / qcomp=0.80 / qpmin=10 / qpmax=51 / qpstep=4 / cplxblur=20.0 / qblur=0.5 / ip_ratio=1.10 / aq=1:1.00
Default : Да
Forced : Нет
Аудио #1
Идентификатор : 2
Формат : AC-3
Формат/Информация : Audio Coding 3
Расширение режима : CM (complete main)
Параметр Endianness формата : Big
Идентификатор кодека : A_AC3
Продолжительность : 2 ч. 17 м.
Вид битрейта : Постоянный
Битрейт : 448 Кбит/сек
Каналы : 6 каналов
Расположение каналов : Front: L C R, Side: L R, LFE
Частота : 48,0 КГц
Битовая глубина : 16 бит
Метод сжатия : С потерями
Задержка видео : 27 мс.
Размер потока : 440 Мбайт (11%)
Заголовок : Многоголосый
Язык : Russian
Default : Нет
Forced : Нет
Аудио #2
Идентификатор : 3
Формат : AC-3
Формат/Информация : Audio Coding 3
Расширение режима : CM (complete main)
Параметр Endianness формата : Big
Идентификатор кодека : A_AC3
Продолжительность : 2 ч. 17 м.
Вид битрейта : Постоянный
Битрейт : 128 Кбит/сек
Каналы : 2 канала
Расположение каналов : Front: L R
Частота : 48,0 КГц
Битовая глубина : 16 бит
Метод сжатия : С потерями
Задержка видео : 27 мс.
Размер потока : 126 Мбайт (3%)
Заголовок : Дубляж
Язык : English
Default : Да
Forced : Нет
Аудио #3
Идентификатор : 4
Формат : AC-3
Формат/Информация : Audio Coding 3
Расширение режима : CM (complete main)
Параметр Endianness формата : Big
Идентификатор кодека : A_AC3
Продолжительность : 2 ч. 17 м.
Вид битрейта : Постоянный
Битрейт : 448 Кбит/сек
Каналы : 6 каналов
Расположение каналов : Front: L C R, Side: L R, LFE
Частота : 48,0 КГц
Битовая глубина : 16 бит
Метод сжатия : С потерями
Задержка видео : 27 мс.
Размер потока : 440 Мбайт (11%)
Заголовок : Авторский [А.Гаврилов]
Язык : Russian
Default : Нет
Forced : Нет
Аудио #4
Идентификатор : 5
Формат : AC-3
Формат/Информация : Audio Coding 3
Расширение режима : CM (complete main)
Параметр Endianness формата : Big
Идентификатор кодека : A_AC3
Продолжительность : 2 ч. 17 м.
Вид битрейта : Постоянный
Битрейт : 192 Кбит/сек
Каналы : 2 канала
Расположение каналов : Front: L R
Частота : 48,0 КГц
Битовая глубина : 16 бит
Метод сжатия : С потерями
Задержка видео : 27 мс.
Размер потока : 189 Мбайт (5%)
Заголовок : Авторский [Л. Володарский]
Язык : Russian
Default : Нет
Forced : Нет
Аудио #5
Идентификатор : 6
Формат : AC-3
Формат/Информация : Audio Coding 3
Расширение режима : CM (complete main)
Параметр Endianness формата : Big
Идентификатор кодека : A_AC3
Продолжительность : 2 ч. 17 м.
Вид битрейта : Постоянный
Битрейт : 128 Кбит/сек
Каналы : 2 канала
Расположение каналов : Front: L R
Частота : 48,0 КГц
Битовая глубина : 16 бит
Метод сжатия : С потерями
Задержка видео : 27 мс.
Размер потока : 126 Мбайт (3%)
Заголовок : Авторский [С. Кузнецов]
Язык : Russian
Default : Нет
Forced : Нет
Аудио #6
Идентификатор : 7
Формат : AC-3
Формат/Информация : Audio Coding 3
Расширение режима : CM (complete main)
Параметр Endianness формата : Big
Идентификатор кодека : A_AC3
Продолжительность : 2 ч. 17 м.
Вид битрейта : Постоянный
Битрейт : 384 Кбит/сек
Каналы : 6 каналов
Расположение каналов : Front: L C R, Side: L R, LFE
Частота : 48,0 КГц
Битовая глубина : 16 бит
Метод сжатия : С потерями
Задержка видео : 27 мс.
Размер потока : 377 Мбайт (9%)
Язык : Russian
Default : Нет
Forced : Нет
Меню
00:00:00.000 : en:
00:05:00.000 : en:
00:10:00.000 : en:
00:15:00.000 : en:
00:20:00.000 : en:
00:25:00.000 : en:
00:30:00.000 : en:
00:35:00.000 : en:
00:40:00.000 : en:
00:45:00.000 : en:
00:50:00.000 : en:
00:55:00.000 : en:
01:00:00.000 : en:
01:05:00.000 : en:
01:10:00.000 : en:
01:15:00.000 : en:
01:20:00.000 : en:
01:25:00.000 : en:
01:30:00.000 : en:
01:35:00.000 : en:
01:40:00.000 : en:
01:45:00.000 : en:
01:50:00.000 : en:
01:55:00.000 : en:
02:00:00.000 : en:
02:05:00.000 : en:
02:10:00.000 : en:
02:15:00.000 : en:
 
Показать сообщения:    

Текущее время: Сегодня 05:00

Часовой пояс: GMT



Вы не можете начинать темы
Вы не можете отвечать на сообщения
Вы не можете редактировать свои сообщения
Вы не можете удалять свои сообщения
Вы не можете голосовать в опросах
Вы не можете прикреплять файлы к сообщениям
Вы не можете скачивать файлы
Наши партнеры: интернет магазин Ивановского трикотажа textilla.ru