Важное объявление!
У Нас Все раздачи мультитрекерные, при нуле пиров в релизах, можете смело вставать на закачку!
 
Автор Сообщение

HUNTER

Стаж:
4 года 4 месяца
Сообщений:
56829

Репутация: 101

[+] [-]
Вне форума [Профиль] [ЛС]

Несколько слишком спокойных господ / Quelques messieurs trop tranquilles-
Страна: Франция
Жанр: комедия, криминал, детектив
Год выпуска: 1973
Продолжительность: 01:36:14
Перевод: Профессиональный (многоголосый закадровый) "ТК "Россия"
Cубтитры: Русские, Английские
Оригинальная аудиодорожка: французский
Режиссер: Жорж Лотнер / Georges Lautner
В ролях: Дани, Мишель Галабрю, Анри Гибе, Жан Лефевр, Андре Пусс, Бруно Прадаль, Поль Пребуа, Рене Сен-Сир, Чарльз Саутвуд, Миу-Миу
Описание: Чтобы спасти свою деревню от окончательного запустения, местные жители из кожи вон лезут, стараясь заманить туристов. Но на их беду, к ним в гости едут только бесшабашные хиппари, которые в конце концов надоедают горожанам своими выходками. Спокойные провинциалы, которых достала разгульная молодежь, выгоняют постояльцев из города. Но вскоре жителям деревни приходится объединиться с хиппи в поисках таинственных преступников.
Доп. информация: Рип от CRiSC!
Релиз от:
Сэмпл: http://multi-up.com/1044316
Тип релиза: BDRip 720p
Источник: Quelques messieurs trop tranquilles (1973) 1080p BD-Remux
Контейнер: MKV
Видео: AVC, 1206x720 (1.675), 24.000 fps, 11.2 Mbps (0.536 bit/pixel)
Аудио: Russian: 48 kHz, AC3, 2/0 (L,R) ch, ~192.00 kbps avg |Многоголосый закадровый, ТК "Россия"|
Аудио 2: French: 48 kHz/24-bit, DTS, 2/0 (L,R) ch, ~768.00 kbps avg
Формат субтитров: softsub (SRT)

MediaInfo

General
Unique ID : 252068937739626623402884444629322452446 (0xBDA2B626743F5875874DD60B9EAC4DDE)
Complete name : D:\Фильмы и сериалы\Quelques.messieurs.trop.tranquilles.1973.720p.BluRay.Rus.Fre.HDCLUB.mkv
Format : Matroska
Format version : Version 2
File size : 8.31 GiB
Duration : 1h 36mn
Overall bit rate : 12.4 Mbps
Movie name : Quelques messieurs trop tranquilles (1973) - Release for HDCLUB
Encoded date : UTC 2014-10-17 21:01:15
Writing application : mkvmerge v5.7.0 ('The Whirlwind') built on Jul 8 2012 20:08:51
Writing library : libebml v1.2.3 + libmatroska v1.3.0
Video
ID : 1
Format : AVC
Format/Info : Advanced Video Codec
Format profile : High@L4.1
Format settings, CABAC : Yes
Format settings, ReFrames : 9 frames
Codec ID : V_MPEG4/ISO/AVC
Duration : 1h 36mn
Bit rate : 11.2 Mbps
Width : 1 206 pixels
Height : 720 pixels
Display aspect ratio : 1.675
Frame rate mode : Constant
Frame rate : 24.000 fps
Color space : YUV
Chroma subsampling : 4:2:0
Bit depth : 8 bits
Scan type : Progressive
Bits/(Pixel*Frame) : 0.535
Stream size : 7.50 GiB (90%)
Writing library : x264 core 142 r2431+42 c69a006 tMod [8-bit@4:2:0 X86_64]
Encoding settings : cabac=1 / ref=9 / deblock=1:-3:-3 / analyse=0x3:0x133 / me=umh / subme=10 / psy=1 / fade_compensate=0.00 / psy_rd=1.00:0.00 / mixed_ref=1 / me_range=24 / chroma_me=1 / trellis=2 / 8x8dct=1 / cqm=0 / deadzone=21,11 / fast_pskip=1 / chroma_qp_offset=-2 / threads=12 / lookahead_threads=2 / sliced_threads=0 / nr=0 / decimate=1 / interlaced=0 / bluray_compat=0 / constrained_intra=0 / fgo=0 / bframes=9 / b_pyramid=2 / b_adapt=2 / b_bias=0 / direct=3 / weightb=1 / open_gop=0 / weightp=2 / keyint=250 / keyint_min=24 / scenecut=40 / intra_refresh=0 / rc_lookahead=60 / rc=crf / mbtree=0 / crf=17.5000 / qcomp=0.65 / qpmin=0:0:0 / qpmax=69:69:69 / qpstep=4 / vbv_maxrate=62500 / vbv_bufsize=78125 / crf_max=0.0 / nal_hrd=none / filler=0 / ip_ratio=1.30 / pb_ratio=1.20 / aq=4:0.85 / aq-sensitivity=10.00 / aq-factor=1.00:1.00:1.00 / aq2=0 / aq3=0
Language : French
Default : Yes
Forced : No
Matrix coefficients : BT.709
Color range : Limited
Audio #1
ID : 2
Format : AC-3
Format/Info : Audio Coding 3
Mode extension : CM (complete main)
Format settings, Endianness : Big
Codec ID : A_AC3
Duration : 1h 36mn
Bit rate mode : Constant
Bit rate : 192 Kbps
Channel(s) : 2 channels
Channel positions : Front: L R
Sampling rate : 48.0 KHz
Bit depth : 16 bits
Compression mode : Lossy
Stream size : 132 MiB (2%)
Title : |Многоголосый закадровый, ТК "Россия"|
Language : Russian
Default : Yes
Forced : No
Audio #2
ID : 3
Format : DTS
Format/Info : Digital Theater Systems
Mode : 16
Format settings, Endianness : Big
Codec ID : A_DTS
Duration : 1h 36mn
Bit rate mode : Constant
Bit rate : 768 Kbps
Channel(s) : 2 channels
Channel positions : Front: L R
Sampling rate : 48.0 KHz
Bit depth : 16 bits
Compression mode : Lossy
Stream size : 529 MiB (6%)
Language : French
Default : No
Forced : No
Text #1
ID : 4
Format : UTF-8
Codec ID : S_TEXT/UTF8
Codec ID/Info : UTF-8 Plain Text
Language : Russian
Default : No
Forced : No
Text #2
ID : 5
Format : UTF-8
Codec ID : S_TEXT/UTF8
Codec ID/Info : UTF-8 Plain Text
Language : English
Default : No
Forced : No
Menu
00:00:00.000 : :00:00:00.000
00:08:17.750 : :00:08:17.750
00:16:03.082 : :00:16:03.082
00:24:19.000 : :00:24:19.000
00:31:57.000 : :00:31:57.000
00:42:14.916 : :00:42:14.916
00:51:09.375 : :00:51:09.375
00:57:43.750 : :00:57:43.750
01:06:19.375 : :01:06:19.375
01:11:29.500 : :01:11:29.500
01:19:49.707 : :01:19:49.707
01:27:19.541 : :01:27:19.541

Скриншоты


-
Цитата:
Цитата:

  • Сохранены оригинальные главы.
  • За ремукс спасибо sergey_n
  • За VHS кассету с переводом ТК "Россия" большое спасибо yanina.tet. Оцифровка и синхронизация с ДВД - Urasik.
  • Перевод субтитров - Антон Каптелов. Огранизация перевода - dimmm2v.

_________________
Показать сообщения:    

Текущее время: Сегодня 14:48

Часовой пояс: GMT



Вы не можете начинать темы
Вы не можете отвечать на сообщения
Вы не можете редактировать свои сообщения
Вы не можете удалять свои сообщения
Вы не можете голосовать в опросах
Вы не можете прикреплять файлы к сообщениям
Вы не можете скачивать файлы