Важное объявление!
У Нас Все раздачи мультитрекерные, при нуле пиров в релизах, можете смело вставать на закачку!
 
Автор Сообщение

HUNTER

Стаж:
4 года 4 месяца
Сообщений:
56765

Репутация: 101

[+] [-]
Вне форума [Профиль] [ЛС]

Неразгаданные тайны Лузитании / Dark Secrets of the Lusitania
Дата/Год выпуска: 2012
Страна: США
Жанр: Документалистика
Продолжительность: 00:44:52
Перевод: Одноголосый закадровый
Русские субтитры: нет
Оригинальная аудиодорожка: английский
Режиссер: Эрик Нельсон / Eric Nelson
Телеканал: National Geographic
Описание: 7 мая 1915 года один из крупнейших океанских лайнеров "Лузитания" совершает своё плавание из Нью-Йорка в Ливерпуль. Неожиданно немецкая субмарина поражает лайнер всего одной торпедой. Далее, после мощного и до сих пор необъясненного второго взрыва, "Лузитания" идет на дно. Загадка этой катастрофы до сих пор волнует умы людей, но раскрыть её пока не удалось никому. Что же послужило причиной гибели "Лузитании"? Секреты, хранившиеся на дне океана с 1915 года, наконец, всплывают на поверхность.
Сэмпл: http://multi-up.com/982949
качество: DVB
формат: TS/M2TS
Видео: AVC, аноморф. 704х576, 16:9, 1382 Кбит/сек, 25 fps
Аудио: 1(Rus): MPEG Audio, 112 Кбит/сек, 48 КГц, 2 канала
Аудио 2: (Eng): MPEG Audio, 96 Кбит/сек, 48 КГц, 2 канала
MediaInfo
ОбщееИдентификатор : 16 (0x10)Полное имя : Dark secrets of the Lusitania.tsФормат : MPEG-TSРазмер файла : 538 МбайтПродолжительность : 44 м.Режим общего битрейта : ПеременныйОбщий поток : 1675 Кбит/сек
ВидеоИдентификатор : 1224 (0x4C8)Идентификатор меню : 224 (0xE0)Формат : AVCФормат/Информация : Advanced Video CodecПрофиль формата : Main@L3.0Параметр CABAC формата : ДаПараметр ReFrames формата : 3 кадраИдентификатор кодека : 27Продолжительность : 44 м.Битрейт : 1382 Кбит/секШирина : 704 пикселяВысота : 576 пикселейСоотношение сторон : 16:9Частота кадров : 25,000 кадров/секСтандарт вещания : PALЦветовое пространство : YUVСубдискретизация насыщенности : 4:2:0Битовая глубина : 8 битТип развёртки : ПрогрессивнаяБит/(Пиксели*Кадры) : 0.136Размер потока : 444 Мбайт (83%)Основные цвета : BT.601 PALХарактеристики трансфера : BT.470 System B, BT.470 System GКоэффициенты матрицы : BT.601
Аудио #1Идентификатор : 2224 (0x8B0)Идентификатор меню : 224 (0xE0)Формат : MPEG AudioВерсия формата : Version 1Профиль формата : Layer 2Идентификатор кодека : 4Продолжительность : 44 м.Вид битрейта : ПостоянныйБитрейт : 112 Кбит/секКаналы : 2 каналаЧастота : 48,0 КГцМетод сжатия : С потерямиЗадержка видео : 69 мс.Размер потока : 36,0 Мбайт (7%)Язык : stdЯзык, дополнительно : Clean effects
Аудио #2Идентификатор : 3224 (0xC98)Идентификатор меню : 224 (0xE0)Формат : MPEG AudioВерсия формата : Version 1Профиль формата : Layer 2Идентификатор кодека : 4Продолжительность : 44 м.Вид битрейта : ПостоянныйБитрейт : 96,0 Кбит/секКаналы : 2 каналаЧастота : 48,0 КГцМетод сжатия : С потерямиЗадержка видео : 69 мс.Размер потока : 30,8 Мбайт (6%)Язык : EnglishЯзык, дополнительно : Clean effects
Скриншоты

_________________
Показать сообщения:    

Текущее время: Сегодня 06:24

Часовой пояс: GMT



Вы не можете начинать темы
Вы не можете отвечать на сообщения
Вы не можете редактировать свои сообщения
Вы не можете удалять свои сообщения
Вы не можете голосовать в опросах
Вы не можете прикреплять файлы к сообщениям
Вы не можете скачивать файлы