Важное объявление!
У Нас Все раздачи мультитрекерные, при нуле пиров в релизах, можете смело вставать на закачку!
 
Автор Сообщение

HUNTER

Стаж:
4 года 4 месяца
Сообщений:
56722

Репутация: 101

[+] [-]
Вне форума [Профиль] [ЛС]

Неоконченная тетрадь
Год выпуска: 2013
Страна: Россия
Жанр: Документальный
Продолжительность: 00:50:31
Перевод: Не требуется
Русские субтитры: нет
Автор сценария и ведущий: Владимир Молчанов
Режиссер: Консуэло Сегура
Описание: Он пришел в разведку в конце Великой Отечественной войны. Прошел путь от лейтенанта до генерала, участвовал во многих операциях по разоблачению вражеских агентов и предателей, был главным действующим лицом тайного канала связи между Л. Брежневым и канцлером ФРГ В. Брандтом. Награжден 22 советскими орденами и медалями. В свои годы - бодр, активен, пишет книги. Являет собой блестящий пример подлинного патриота России.

качество: SATRip
формат: AVI
Видео: Xvid 720x400 (16:9) 25.0 fps Bit rate 1499Kbps Bits/(Pixel*Frame) 0.208
Аудио: 48.0 KHz 2ch 128kbps

MediaInfo

General
Complete name : E:\torrent\Неоконченная тетрадь.avi
Format : AVI
Format/Info : Audio Video Interleave
File size : 591 MiB
Duration : 50mn 31s
Overall bit rate : 1 636 Kbps
Writing library : VirtualDub build 32842/release
Video
ID : 0
Format : MPEG-4 Visual
Format profile : Advanced Simple@L5
Format settings, BVOP : Yes
Format settings, QPel : No
Format settings, GMC : No warppoints
Format settings, Matrix : Default (H.263)
Codec ID : XVID
Codec ID/Hint : XviD
Duration : 50mn 31s
Bit rate : 1 499 Kbps
Width : 720 pixels
Height : 400 pixels
Display aspect ratio : 16:9
Frame rate : 25.000 fps
Color space : YUV
Chroma subsampling : 4:2:0
Bit depth : 8 bits
Scan type : Progressive
Bits/(Pixel*Frame) : 0.208
Stream size : 542 MiB (92%)
Writing library : XviD 1.2.1 (UTC 2008-12-04)
Audio
ID : 1
Format : MPEG Audio
Format version : Version 1
Format profile : Layer 3
Mode : Joint stereo
Mode extension : MS Stereo
Codec ID : 55
Codec ID/Hint : MP3
Duration : 50mn 31s
Bit rate mode : Constant
Bit rate : 128 Kbps
Channel(s) : 2 channels
Sampling rate : 48.0 KHz
Stream size : 46.3 MiB (8%)
Alignment : Split accross interleaves
Interleave, duration : 40 ms (1.00 video frame)
Interleave, preload duration : 500 ms

Скриншоты


_________________
Показать сообщения:    

Текущее время: Сегодня 08:21

Часовой пояс: GMT



Вы не можете начинать темы
Вы не можете отвечать на сообщения
Вы не можете редактировать свои сообщения
Вы не можете удалять свои сообщения
Вы не можете голосовать в опросах
Вы не можете прикреплять файлы к сообщениям
Вы не можете скачивать файлы