Важное объявление!
У Нас Все раздачи мультитрекерные, при нуле пиров в релизах, можете смело вставать на закачку!
 
Автор Сообщение

HUNTER

Стаж:
4 года 4 месяца
Сообщений:
56798

Репутация: 101

[+] [-]
Вне форума [Профиль] [ЛС]

Необыкновенное путешествие Серафимы
Страна: Россия
Жанр: Мультипликация
Продолжительность: 01:14:57
Год выпуска: 2015
Перевод: Не требуется
Русские субтитры: нет-Режиссёр: Сергей Антонов
Роли озвучивали: Александр Михайлов, Алина Михайлова, Виктория Дробина, Вера Васильева, Анастасия Бартяева, Владимир Левашёв, Наталья Грачёва, Анна Волкова, Анна Мещан, Елена Кищик-Описание: Сима Воскресенская, лишившаяся родителей в самом начале войны, живет в детском доме и втайне хранит нашейный крест, напоминающий ей о любимой семье. Однажды Сима знакомится с Ритой — девочкой, которая открывает ей, что дом полон секретов и призраков, и предлагает ей отправиться в загадочную каморку под лестницей, чтобы посмотреть на одного из них. Кто бы мог подумать, что приглашение поможет Серафиме раскрыть тайну детского дома и пролить свет на судьбу родителей.-Качество: WEB-DL 1080p
Формат: MKV
Видео: AVC, 1920x1080 (16:9), 24.000 fps, 4 950 Kbps (0.099 bit/pixel)
Аудио: AC-3, 48.0 KHz, 6 ch, 384 Kbps, CBR (Russian) [iTunes]
Субтитры: отсутствуют
Семпл: Забираем тут

Подробные технические данные

GeneralUnique ID : 236221326310044304948153229568338898647 (0xB1B69294E31F14AC955303035E3D2ED7)Complete name : Необыкновенное путешествие Серафимы 2015 WEB-DL 1080p.mkvFormat : MatroskaFormat version : Version 4 / Version 2File size : 2.85 GiBDuration : 1h 14mnOverall bit rate : 5 442 KbpsEncoded date : UTC 2015-09-16 19:08:19Writing application : mkvmerge v6.9.1 ('Blue Panther') 64bit built on Apr 18 2014 18:23:38Writing library : libebml v1.3.0 + libmatroska v1.4.1
VideoID : 1Format : AVCFormat/Info : Advanced Video CodecFormat profile : High@L4Format settings, CABAC : YesFormat settings, ReFrames : 4 framesCodec ID : V_MPEG4/ISO/AVCDuration : 1h 14mnBit rate : 4 950 KbpsWidth : 1 920 pixelsHeight : 1 080 pixelsDisplay aspect ratio : 16:9Frame rate mode : ConstantFrame rate : 24.000 fpsColor space : YUVChroma subsampling : 4:2:0Bit depth : 8 bitsScan type : ProgressiveBits/(Pixel*Frame) : 0.099Stream size : 2.59 GiB (91%)Language : EnglishDefault : YesForced : NoColor range : LimitedColor primaries : BT.709Transfer characteristics : BT.709Matrix coefficients : BT.709
AudioID : 2Format : AC-3Format/Info : Audio Coding 3Mode extension : CM (complete main)Format settings, Endianness : BigCodec ID : A_AC3Duration : 1h 14mnBit rate mode : ConstantBit rate : 384 KbpsChannel(s) : 6 channelsChannel positions : Front: L C R, Side: L R, LFESampling rate : 48.0 KHzCompression mode : LossyStream size : 206 MiB (7%)Language : RussianDefault : YesForced : No
Menu00:00:00.000 : en:Глава 100:05:05.000 : en:Глава 200:09:42.000 : en:Глава 300:15:19.000 : en:Глава 400:20:48.000 : en:Глава 500:25:01.000 : en:Глава 600:30:37.000 : en:Глава 700:35:53.000 : en:Глава 800:40:52.000 : en:Глава 900:47:31.000 : en:Глава 1000:52:51.000 : en:Глава 1100:59:04.000 : en:Глава 1201:05:56.000 : en:Глава 13

Скриншоты



_________________
Показать сообщения:    

Текущее время: Сегодня 23:37

Часовой пояс: GMT



Вы не можете начинать темы
Вы не можете отвечать на сообщения
Вы не можете редактировать свои сообщения
Вы не можете удалять свои сообщения
Вы не можете голосовать в опросах
Вы не можете прикреплять файлы к сообщениям
Вы не можете скачивать файлы