Важное объявление!
У Нас Все раздачи мультитрекерные, при нуле пиров в релизах, можете смело вставать на закачку!
 
Автор Сообщение

HUNTER

Стаж:
4 года 4 месяца
Сообщений:
56809

Репутация: 101

[+] [-]
Вне форума [Профиль] [ЛС]

Необузданные / The Lusty Men
Страна: США
Студия: Wald/Krasna Productions
Жанр: драма
Год выпуска: 1952
Продолжительность: 01:53:00
Перевод: Субтитры
Cубтитры: русские, английские
Оригинальная аудиодорожка: английский
Режиссер: Николас Рэй / Nicholas Ray, Роберт Пэрриш / Robert Parrish
В ролях: Сюзан Хэйуорд, Роберт Митчэм, Артур Кеннеди, Артур Ханникатт, Фрэнк Фэйлен, Уолтер Кой, Кэрол Ньюджент, Мария Харт, Лорна Тэйер, Бёрт Мастин, Кэрен Кинг
Описание: Бывшая звезда родео Джефф МакКлауд получает тяжелую травму на выступлении и вынужден завершить карьеру. Без определенной цели, просто по зову сердца, он возвращается туда, где прошло его детство, в родной дом который он хотел однажды выкупить. Но немалые деньги, выигранные им за 18 лет в родео, растрачены. Копить, смотреть в будущее — не в его характере. Живущий по соседству ковбой Уэс Мерритт, женатый уже третий год, наслышан о его подвигах и устраивает его на ранчо, где работает сам. Уэс и его жена Луиза планируют купить собственное ранчо, но для этого им нужно копить деньги еще много лет. Уэса манят быстрые выигрыши в родео, и он просит Джеффа ввести его в этот спорт…

Sample
Тип релиза: WEB-DL 720p
Контейнер: MKV
Видео: MPEG4 AVC Video, H264, 990x720, 23.976 fps, 3848 kbps
Аудио: English (AC3, 2 ch, 192 kbps, 16 bits, 48.0 KHz) - оригинал
Формат субтитров: softsub (SRT)

MediaInfo

General
Unique ID : 200442542060682164632167616193741988089 (0x96CBD452CBF116498091055EEDF820F9)
Complete name : D:\The Lusty Men 1952 WEB-DL 720p.mkv
Format : Matroska
Format version : Version 4 / Version 2
File size : 3.25 GiB
Duration : 1h 53mn
Overall bit rate : 4 122 Kbps
Encoded date : UTC 2015-07-27 06:53:29
Writing application : mkvmerge v6.1.0 ('Old Devil') built on Mar 2 2013 14:32:37
Writing library : libebml v1.3.0 + libmatroska v1.4.0
Video
ID : 1
Format : AVC
Format/Info : Advanced Video Codec
Format profile : High@L3.1
Format settings, CABAC : No
Format settings, ReFrames : 2 frames
Codec ID : V_MPEG4/ISO/AVC
Duration : 1h 53mn
Bit rate : 3 848 Kbps
Width : 990 pixels
Height : 720 pixels
Display aspect ratio : 1.375
Frame rate mode : Constant
Frame rate : 23.976 fps
Color space : YUV
Chroma subsampling : 4:2:0
Bit depth : 8 bits
Scan type : Progressive
Bits/(Pixel*Frame) : 0.225
Stream size : 3.04 GiB (93%)
Language : English
Default : Yes
Forced : No
Color primaries : BT.709
Transfer characteristics : BT.709
Matrix coefficients : BT.709
Audio
ID : 2
Format : AC-3
Format/Info : Audio Coding 3
Mode extension : CM (complete main)
Format settings, Endianness : Big
Codec ID : A_AC3
Duration : 1h 53mn
Bit rate mode : Constant
Bit rate : 192 Kbps
Channel count : 2 channels
Channel positions : Front: L R
Sampling rate : 48.0 KHz
Bit depth : 16 bits
Compression mode : Lossy
Stream size : 155 MiB (5%)
Language : English
Default : Yes
Forced : No
Text #1
ID : 3
Format : UTF-8
Codec ID : S_TEXT/UTF8
Codec ID/Info : UTF-8 Plain Text
Language : Russian
Default : Yes
Forced : Yes
Text #2
ID : 4
Format : UTF-8
Codec ID : S_TEXT/UTF8
Codec ID/Info : UTF-8 Plain Text
Language : English
Default : No
Forced : No
Menu
00:00:00.000 : en:1
00:12:56.000 : en:2
00:23:48.000 : en:3
00:32:06.000 : en:4
00:40:27.000 : en:5
00:51:22.000 : en:6
00:59:14.000 : en:7
01:10:54.000 : en:8
01:19:37.000 : en:9
01:28:33.000 : en:10
01:40:12.000 : en:11
01:47:31.000 : en:12

Скриншоты


_________________
Показать сообщения:    

Текущее время: Сегодня 19:20

Часовой пояс: GMT



Вы не можете начинать темы
Вы не можете отвечать на сообщения
Вы не можете редактировать свои сообщения
Вы не можете удалять свои сообщения
Вы не можете голосовать в опросах
Вы не можете прикреплять файлы к сообщениям
Вы не можете скачивать файлы