Важное объявление!
У Нас Все раздачи мультитрекерные, при нуле пиров в релизах, можете смело вставать на закачку!
 
Автор Сообщение

HUNTER

Стаж:
4 года 4 месяца
Сообщений:
56853

Репутация: 101

[+] [-]
Вне форума [Профиль] [ЛС]

Неисправимый Гуфи / Экстремальный Гуфи / An Extremely Goofy Movie
Страна: США
Жанр: Мультипликация
Продолжительность: 1:18:58
Год выпуска: 2000
Перевод 1: Профессиональный (дублированный)
Перевод 2: Профессиональный (многоголосый закадровый)
Перевод 3: Авторский (одноголосый закадровый) (Юрий Живов)
Перевод 4: Одноголосый закадровый (Hide)
Русские субтитры: есть
Режиссёр: Дуглас МакКарти / Douglas McCarthy
Роли озвучивали: Билл Фармер, Джейсон Мэрсден, Джефф Беннетт, Джим Каммингс, Брэд Гэррет, Викки Льюис, Биби Нойуэрт, Роб Полсен, Поли Шор, Пэдди Эдвардс
Описание: Гуфи потерял работу и решил, что без диплома колледжа другую работу ему не получить. Поэтому он появляется в колледже своего сына, у которого все было так хорошо до приезда отца. Но планы Гуфи срываются, а отношения с сыном подвергаются серьезному испытанию.
Релиз от -
СПАСИБО: xfiles - за дорогу с дублированный переводом.
СПАСИБО: ces2003 - за дорогу с многоголосым закадровым переводом и русские субтитры
Качество: WEB-DL 1080p
Формат: MKV
Видео: AVC, 1916x1076 (16:9), 23.976 fps, 4 607 Kbps (0.093 bit/pixel)
Аудио 1: AC-3, 48.0 KHz, 2 ch, 192 Kbps, CBR (Russian) DUB
Аудио 2: AC-3, 48.0 KHz, 6 ch, 384 Kbps, CBR (Russian) MVO
Аудио 3: AC-3, 48.0 KHz, 2 ch, 192 Kbps, CBR (Russian) AVO
Аудио 4: AC-3, 48.0 KHz, 2 ch, 192 Kbps, CBR (Russian) VO
Аудио 5: AC-3, 48.0 KHz, 6 ch, 384 Kbps, CBR (English) Original
Субтитры: Russian, English
Семпл: Тут

Подробные технические данные

ОбщееУникальный идентификатор : 203126152856786260800456568963416231860 (0x98D0AC8D1110643EB912AE60E4E48FB4)Полное имя : F:\An Extremely Goofy Movie 2000 WEB-DL 1080p.mkvФормат : MatroskaВерсия формата : Version 4 / Version 2Размер файла : 3,35 ГбайтПродолжительность : 1 ч. 18 м.Общий поток : 6071 Кбит/секДата кодирования : UTC 2013-06-18 07:16:12Программа кодирования : mkvmerge v6.2.0 ('Promised Land') built on Apr 28 2013 12:22:01Библиотека кодирования : libebml v1.3.0 + libmatroska v1.4.0
ВидеоИдентификатор : 1Формат : AVCФормат/Информация : Advanced Video CodecПрофиль формата : High@L4.0Параметр CABAC формата : ДаПараметр ReFrames формата : 4 кадраПараметр GOP формата : N=2Идентификатор кодека : V_MPEG4/ISO/AVCПродолжительность : 1 ч. 18 м.Битрейт : 4606 Кбит/секШирина : 1916 пикселейВысота : 1076 пикселейСоотношение сторон : 16:9Режим частоты кадров : ПостоянныйЧастота кадров : 23,976 кадра/секЦветовое пространство : YUVСубдискретизация насыщенности : 4:2:0Битовая глубина : 8 битТип развёртки : ПрогрессивнаяБит/(Пиксели*Кадры) : 0.093Размер потока : 2,54 Гбайт (76%)Язык : EnglishDefault : ДаForced : НетОсновные цвета : BT.709Характеристики трансфера : BT.709Коэффициенты матрицы : BT.709
Аудио #1Идентификатор : 2Формат : AC-3Формат/Информация : Audio Coding 3Профиль формата : Dolby DigitalРасширение режима : CM (complete main)Параметр Endianness формата : BigИдентификатор кодека : A_AC3Продолжительность : 1 ч. 18 м.Вид битрейта : ПостоянныйБитрейт : 192 Кбит/секКаналы : 2 каналаРасположение каналов : Front: L RЧастота : 48,0 КГцБитовая глубина : 16 битМетод сжатия : С потерямиРазмер потока : 108 Мбайт (3%)Заголовок : DUBЯзык : RussianDefault : ДаForced : Нет
Аудио #2Идентификатор : 3Формат : AC-3Формат/Информация : Audio Coding 3Расширение режима : CM (complete main)Параметр Endianness формата : BigИдентификатор кодека : A_AC3Продолжительность : 1 ч. 18 м.Вид битрейта : ПостоянныйБитрейт : 384 Кбит/секКаналы : 6 каналовРасположение каналов : Front: L C R, Side: L R, LFEЧастота : 48,0 КГцБитовая глубина : 16 битМетод сжатия : С потерямиРазмер потока : 217 Мбайт (6%)Заголовок : MVOЯзык : RussianDefault : НетForced : Нет
Аудио #3Идентификатор : 4Формат : AC-3Формат/Информация : Audio Coding 3Расширение режима : CM (complete main)Параметр Endianness формата : BigИдентификатор кодека : A_AC3Продолжительность : 1 ч. 18 м.Вид битрейта : ПостоянныйБитрейт : 192 Кбит/секКаналы : 2 каналаРасположение каналов : Front: L RЧастота : 48,0 КГцБитовая глубина : 16 битМетод сжатия : С потерямиРазмер потока : 108 Мбайт (3%)Заголовок : AVOЯзык : RussianDefault : НетForced : Нет
Аудио #4Идентификатор : 5Формат : AC-3Формат/Информация : Audio Coding 3Расширение режима : CM (complete main)Параметр Endianness формата : BigИдентификатор кодека : A_AC3Продолжительность : 1 ч. 18 м.Вид битрейта : ПостоянныйБитрейт : 192 Кбит/секКаналы : 2 каналаРасположение каналов : Front: L RЧастота : 48,0 КГцБитовая глубина : 16 битМетод сжатия : С потерямиРазмер потока : 108 Мбайт (3%)Заголовок : VOЯзык : RussianDefault : НетForced : Нет
Аудио #5Идентификатор : 6Формат : AC-3Формат/Информация : Audio Coding 3Расширение режима : CM (complete main)Параметр Endianness формата : BigИдентификатор кодека : A_AC3Продолжительность : 1 ч. 18 м.Вид битрейта : ПостоянныйБитрейт : 384 Кбит/секКаналы : 6 каналовРасположение каналов : Front: L C R, Side: L R, LFEЧастота : 48,0 КГцБитовая глубина : 16 битМетод сжатия : С потерямиРазмер потока : 217 Мбайт (6%)Язык : EnglishDefault : НетForced : Нет
Текст #1Идентификатор : 7Формат : UTF-8Идентификатор кодека : S_TEXT/UTF8Идентификатор кодека/Информация : UTF-8 Plain TextЯзык : RussianDefault : НетForced : Нет
Текст #2Идентификатор : 8Формат : UTF-8Идентификатор кодека : S_TEXT/UTF8Идентификатор кодека/Информация : UTF-8 Plain TextЯзык : EnglishDefault : НетForced : Нет
Меню00:00:00.000 : en:Main Title / Max's Last Night At Home00:07:14.000 : en:First Day Of The Rest Of Our Lives00:10:51.000 : en:Turmoil At The Toy Company00:15:10.000 : en:Making The Bean Scene00:20:50.000 : en:A Matter Of Degrees00:21:45.000 : en:Max's Worst Nightmare00:26:37.000 : en:Meeting Ms. Marpole00:30:44.000 : en:The Newest Gamma00:33:56.000 : en:Getting Down At Club Rave00:35:42.000 : en:"Shake Your Groove Thing"00:40:33.000 : en:The Qualifying Round / Father vs. Son00:46:28.000 : en:Mid-term Day Dreamin'00:49:45.000 : en:Regaining Focus00:51:00.000 : en:One Goof Too Many00:55:37.000 : en:Knuckling Down00:57:04.000 : en:Goodbye Gammas00:59:22.000 : en:The Semifinals / Now It's Personal01:02:15.000 : en:The Finals / Two Goofs Are Better Than One01:07:38.000 : en:Finishing With A Bang01:11:07.000 : en:Graduation Day01:13:10.000 : en:End Credits

Скриншоты



_________________
Показать сообщения:    

Текущее время: Сегодня 13:25

Часовой пояс: GMT



Вы не можете начинать темы
Вы не можете отвечать на сообщения
Вы не можете редактировать свои сообщения
Вы не можете удалять свои сообщения
Вы не можете голосовать в опросах
Вы не можете прикреплять файлы к сообщениям
Вы не можете скачивать файлы
Наши партнеры: интернет магазин Ивановского трикотажа textilla.ru