Важное объявление!
У Нас Все раздачи мультитрекерные, при нуле пиров в релизах, можете смело вставать на закачку!
 
Автор Сообщение

HUNTER

Стаж:
4 года 4 месяца
Сообщений:
56734

Репутация: 101

[+] [-]
Вне форума [Профиль] [ЛС]

Незабываемое / Unforgettable
Страна: США
Жанр: фантастика, триллер
Год выпуска: 1996
Продолжительность: 01:56:56
Перевод: Профессиональный (многоголосый закадровый)
Перевод 2: Авторский (одноголосый закадровый) Пётр Карцев
Cубтитры: нет
Оригинальная аудиодорожка: английский
Режиссер: Джон Дал / John Dahl
В ролях: Рэй Лиотта, Линда Фиорентино, Питер Койот, Кристофер МакДональд, Дэвид Пэймер, Дункан Фрайзер, Кэролайн Эллиотт, Коллин Реннисон, Ким Кэтролл, Стеллина Русиш
Описание: Жена судмедэксперта Дэвида Крэйна была зверски убита, а сам Дэвид в состоянии алкогольного опьянения находился рядом, где и был задержан полицией. Суд снял с Дэвида обвинение в убийстве, но лишил его права воспитывать детей. Случайно услышав доклад нейробиолога Марты Бриггс, Дэвид принимает решение стать подопытной крысой. Дело в том, что, если ввести себе спинномозговую жидкость мертвого человека, то можно видеть произошедшее перед смертью его глазами. Несколько инъекций, и Дэвид раскрывает жуткое преступление. Однако, жизнь самого Дэвида теперь висит на волоске — выберется он из этого эксперимента или погибнет, как погибает каждое восьмое подопытное животное?

Качество видео: BDRip 720p Rip by Koenig
Формат видео: MKV
Видео: MPEG-4 AVC, 7200 Кбит/с, 1280x688, 23.976 кадр/с
Аудио #1: AC3, 6 ch, 384 Кбит/с | Профессиональный многоголосый (DVD)
Аудио #2: AC3, 2 ch, 256 Кбит/с | Авторский (П. Карцев)
Аудио #3: DTS, 6 ch, 1509 Кбит/с | Английский

MediaInfo

Общее
Уникальный идентификатор : 243962154558166509985477300531372668168 (0xB78966E159CC961F9884CF7F3976B508)
Полное имя : Unforgettable.1996.BDRip.720p.mkv
Формат : Matroska
Версия формата : Version 4 / Version 2
Размер файла : 7,62 Гбайт
Продолжительность : 1 ч. 56 м.
Общий поток : 9346 Кбит/сек
Название фильма : Unforgettable
Режиссёр : John Dahl
Дата кодирования : UTC 2016-03-14 15:51:24
Программа кодирования : mkvmerge v7.7.0 ('Six Voices') 32bit built on Feb 28 2015 23:23:00
Библиотека кодирования : libebml v1.3.1 + libmatroska v1.4.2
Attachements : cover.jpg
Release : Koenig
DURATION : 01:56:48.000000000
NUMBER_OF_FRAMES : 657000
NUMBER_OF_BYTES : 1321884088
_STATISTICS_WRITING_APP : mkvmerge v7.7.0 ('Six Voices') 32bit built on Feb 28 2015 23:23:00
_STATISTICS_WRITING_DATE_UTC : 2016-03-14 15:51:24
_STATISTICS_TAGS : BPS DURATION NUMBER_OF_FRAMES NUMBER_OF_BYTES
Видео
Идентификатор : 1
Формат : AVC
Формат/Информация : Advanced Video Codec
Профиль формата : High@L4.1
Параметр CABAC формата : Да
Параметр ReFrames формата : 8 кадров
Идентификатор кодека : V_MPEG4/ISO/AVC
Продолжительность : 1 ч. 56 м.
Битрейт : 7199 Кбит/сек
Ширина : 1280 пикселей
Высота : 688 пикселей
Соотношение сторон : 1,85:1
Режим частоты кадров : Постоянный
Частота кадров : 23,976 кадра/сек
Цветовое пространство : YUV
Субдискретизация насыщенности : 4:2:0
Битовая глубина : 8 бит
Тип развёртки : Прогрессивная
Бит/(Пиксели*Кадры) : 0.341
Размер потока : 5,72 Гбайт (75%)
Библиотека кодирования : x264 core 146 r2538 121396c
Настройки программы : cabac=1 / ref=8 / deblock=1:-3:-3 / analyse=0x3:0x113 / me=umh / subme=10 / psy=1 / psy_rd=1.00:0.05 / mixed_ref=1 / me_range=32 / chroma_me=1 / trellis=2 / 8x8dct=1 / cqm=0 / deadzone=21,11 / fast_pskip=0 / chroma_qp_offset=-4 / threads=3 / lookahead_threads=1 / sliced_threads=0 / nr=0 / decimate=1 / interlaced=0 / bluray_compat=0 / constrained_intra=0 / bframes=9 / b_pyramid=2 / b_adapt=2 / b_bias=0 / direct=3 / weightb=1 / open_gop=0 / weightp=2 / keyint=240 / keyint_min=23 / scenecut=40 / intra_refresh=0 / rc_lookahead=40 / rc=2pass / mbtree=1 / bitrate=7199 / ratetol=1.0 / qcomp=0.60 / qpmin=10 / qpmax=51 / qpstep=4 / cplxblur=20.0 / qblur=0.5 / vbv_maxrate=50000 / vbv_bufsize=62500 / nal_hrd=none / filler=0 / ip_ratio=1.40 / aq=1:1.00
Default : Да
Forced : Нет
Аудио #1
Идентификатор : 2
Формат : AC-3
Формат/Информация : Audio Coding 3
Расширение режима : CM (complete main)
Параметр Endianness формата : Big
Идентификатор кодека : A_AC3
Продолжительность : 1 ч. 56 м.
Вид битрейта : Постоянный
Битрейт : 384 Кбит/сек
Каналы : 6 каналов
Расположение каналов : Front: L C R, Side: L R, LFE
Частота : 48,0 КГц
Метод сжатия : С потерями
Размер потока : 321 Мбайт (4%)
Заголовок : MVO
Язык : Russian
Default : Да
Forced : Нет
Аудио #2
Идентификатор : 3
Формат : AC-3
Формат/Информация : Audio Coding 3
Расширение режима : CM (complete main)
Параметр Endianness формата : Big
Идентификатор кодека : A_AC3
Продолжительность : 1 ч. 56 м.
Вид битрейта : Постоянный
Битрейт : 256 Кбит/сек
Каналы : 2 канала
Расположение каналов : Front: L R
Частота : 48,0 КГц
Метод сжатия : С потерями
Размер потока : 214 Мбайт (3%)
Заголовок : AVO - П. Карцев
Язык : Russian
Default : Нет
Forced : Нет
Аудио #3
Идентификатор : 4
Формат : DTS
Формат/Информация : Digital Theater Systems
Режим : 16
Параметр Endianness формата : Big
Идентификатор кодека : A_DTS
Продолжительность : 1 ч. 56 м.
Вид битрейта : Постоянный
Битрейт : 1509 Кбит/сек
Каналы : 6 каналов
Расположение каналов : Front: L C R, Side: L R, LFE
Частота : 48,0 КГц
Битовая глубина : 16 бит
Метод сжатия : С потерями
Размер потока : 1,23 Гбайт (16%)
Язык : English
Default : Нет
Forced : Нет
Меню
00:00:00.000 : en:Chapter 1
00:03:22.800 : en:Chapter 2
00:09:17.960 : en:Chapter 3
00:12:11.640 : en:Chapter 4
00:22:23.160 : en:Chapter 5
00:31:08.360 : en:Chapter 6
00:36:22.440 : en:Chapter 7
00:44:56.200 : en:Chapter 8
00:51:26.200 : en:Chapter 9
00:57:06.800 : en:Chapter 10
01:06:39.320 : en:Chapter 11
01:09:27.280 : en:Chapter 12
01:16:32.120 : en:Chapter 13
01:22:32.480 : en:Chapter 14
01:28:30.760 : en:Chapter 15
01:34:31.120 : en:Chapter 16
01:40:53.840 : en:Chapter 17
01:48:27.800 : en:Chapter 18

Скриншоты


_________________
Показать сообщения:    

Текущее время: Сегодня 06:42

Часовой пояс: GMT



Вы не можете начинать темы
Вы не можете отвечать на сообщения
Вы не можете редактировать свои сообщения
Вы не можете удалять свои сообщения
Вы не можете голосовать в опросах
Вы не можете прикреплять файлы к сообщениям
Вы не можете скачивать файлы