Важное объявление!
У Нас Все раздачи мультитрекерные, при нуле пиров в релизах, можете смело вставать на закачку!
 
Автор Сообщение

HUNTER

Стаж:
4 года 4 месяца
Сообщений:
56822

Репутация: 101

[+] [-]
Вне форума [Профиль] [ЛС]

Недетское кино / Not Another Teen Movie
Страна: США
Студия: Columbia Pictures Corporation, Neal H. Moritz Productions, Original Film
Жанр: комедия
Год выпуска: 2001
Продолжительность: 01:25:24
Перевод 1: Профессиональный (многоголосый закадровый) ВидеоСервис DVD9
Перевод 2: Профессиональный (многоголосый закадровый) ВидеоСервис DVD5
Перевод 3: Профессиональный (многоголосый закадровый) ВидеоСервис Video CD
Перевод 4: Профессиональный (многоголосый закадровый)
Перевод 5: Профессиональный (многоголосый закадровый)
Перевод 6: Авторский (Одноголосый закадровый) Гранкин
Перевод 7: Профессиональный (многоголосый закадровый)
Cубтитры: русские
Оригинальная аудиодорожка: английский
Режиссер: Джоел Галлен / Joel Gallen
В ролях: Кайлер Ли, Крис Эванс, Джейми Прессли, Эрик Кристиан Олсен, Миа Киршнер, Дион Ричмонд, Эрик Джангманн, Рон Лестер, Коди МакМейнс, Сэм Хантингтон
Описание: Популярный в школе парень и звезда футбольной команды Джейк Уилер, ослепленный собственной славой и успехом, заключает пари со своими друзьями.
Уилер делает ставку на то, что может сделать из любой девушки, посещающей их школу королеву школьного бала. Друзья сразу же выбирают предмет своей шутки - внешне малопривлекательную начинающую художницу Джэни Бриггс, чей комбинезон всегда в краске, которая носит очки и собирает свои волосы в «хвост». Джэни является изгоем в своем классе, однако пройдя через ряд событий, Уиллер понимает, что он любит этого «гадкого утенка»...


Сэмпл: http://sendfile.su/1156674
Тип релиза: WEB-DL 1080p
Контейнер: MKV
Видео: 1920x1080 at 25.000 fps, MPEG-4 AVC, ~10000 kbps avg
Аудио 1: RUS | 48 kHz, AC3, 3/2 (L,C,R,l,r) + LFE ch, ~448.00 kbps avg | Многоголосый закадровый, ВидеоСервис DVD9
Аудио 2: RUS | 48 kHz, AC3, 3/2 (L,C,R,l,r) + LFE ch, ~448.00 kbps avg | Многоголосый закадровый, ВидеоСервис DVD5
Аудио 3: RUS | 48 kHz, AC3, 2/0 (L,R) ch, ~224.00 kbps avg | Многоголосый закадровый, ВидеоСервис Video CD
Аудио 4: RUS | 48 kHz, AC3, 2/0 (L,R) ch, ~192.00 kbps avg | Многоголосый закадровый
Аудио 5: RUS | 48 kHz, AC3, 2/0 (L,R) ch, ~192.00 kbps avg | Многоголосый закадровый
Аудио 6: RUS | 48 kHz, AC3, 2/0 (L,R) ch, ~224.00 kbps avg | Одноголосый закадровый, Гранкин
Аудио 7: UKR | 48 kHz, AC3, 3/2 (L,C,R,l,r) + LFE ch, ~384.00 kbps avg | Многоголосый закадровый
Аудио 8: ENG | 48 kHz, AC3, 3/2 (L,C,R,l,r) + LFE ch, ~448.00 kbps avg

MediaInfo

General
Unique ID : 217958673647428986486064710069711926635 (0xA3F95049822DC280820CBAA82EA9F56B)
Complete name : D:\Not.Another.Teen.Movie.2001.1080p.WEB-DL.6xRus.Ukr.Eng.Subs-HDCLUB.mkv
Format : Matroska
Format version : Version 4 / Version 2
File size : 7.49 GiB
Duration : 1h 25mn
Overall bit rate : 12.6 Mbps
Encoded date : UTC 2015-06-13 20:52:27
Writing application : mkvmerge v6.3.0 ('You can't stop me!') built on Jun 28 2013 20:09:41
Writing library : libebml v1.3.0 + libmatroska v1.4.0
Video
ID : 1
Format : AVC
Format/Info : Advanced Video Codec
Format profile : High@L4
Format settings, CABAC : Yes
Format settings, ReFrames : 4 frames
Format settings, GOP : M=4, N=50
Codec ID : V_MPEG4/ISO/AVC
Duration : 1h 25mn
Bit rate mode : Constant
Bit rate : 10 000 Kbps
Width : 1 920 pixels
Height : 1 080 pixels
Display aspect ratio : 16:9
Frame rate mode : Constant
Frame rate : 25.000 fps
Standard : PAL
Color space : YUV
Chroma subsampling : 4:2:0
Bit depth : 8 bits
Scan type : Progressive
Bits/(Pixel*Frame) : 0.193
Stream size : 5.82 GiB (78%)
Language : English
Default : Yes
Forced : No
Color range : Limited
Color primaries : BT.709
Transfer characteristics : BT.709
Matrix coefficients : BT.709
Audio #1
ID : 2
Format : AC-3
Format/Info : Audio Coding 3
Mode extension : CM (complete main)
Format settings, Endianness : Big
Codec ID : A_AC3
Duration : 1h 25mn
Bit rate mode : Constant
Bit rate : 448 Kbps
Channel(s) : 6 channels
Channel positions : Front: L C R, Side: L R, LFE
Sampling rate : 48.0 KHz
Compression mode : Lossy
Stream size : 274 MiB (4%)
Title : ВидеоСервис DVD9
Language : Russian
Default : Yes
Forced : No
Audio #2
ID : 3
Format : AC-3
Format/Info : Audio Coding 3
Mode extension : CM (complete main)
Format settings, Endianness : Big
Codec ID : A_AC3
Duration : 1h 25mn
Bit rate mode : Constant
Bit rate : 448 Kbps
Channel(s) : 6 channels
Channel positions : Front: L C R, Side: L R, LFE
Sampling rate : 48.0 KHz
Compression mode : Lossy
Stream size : 274 MiB (4%)
Title : ВидеоСервис DVD5
Language : Russian
Default : No
Forced : No
Audio #3
ID : 4
Format : AC-3
Format/Info : Audio Coding 3
Mode extension : CM (complete main)
Format settings, Endianness : Big
Codec ID : A_AC3
Duration : 1h 25mn
Bit rate mode : Constant
Bit rate : 224 Kbps
Channel(s) : 2 channels
Channel positions : Front: L R
Sampling rate : 48.0 KHz
Compression mode : Lossy
Stream size : 137 MiB (2%)
Title : ВидеоСервис Video CD
Language : Russian
Default : No
Forced : No
Audio #4
ID : 5
Format : AC-3
Format/Info : Audio Coding 3
Mode extension : CM (complete main)
Format settings, Endianness : Big
Codec ID : A_AC3
Duration : 1h 25mn
Bit rate mode : Constant
Bit rate : 192 Kbps
Channel(s) : 2 channels
Channel positions : Front: L R
Sampling rate : 48.0 KHz
Compression mode : Lossy
Stream size : 117 MiB (2%)
Language : Russian
Default : No
Forced : No
Audio #5
ID : 6
Format : AC-3
Format/Info : Audio Coding 3
Mode extension : CM (complete main)
Format settings, Endianness : Big
Codec ID : A_AC3
Duration : 1h 25mn
Bit rate mode : Constant
Bit rate : 192 Kbps
Channel(s) : 2 channels
Channel positions : Front: L R
Sampling rate : 48.0 KHz
Compression mode : Lossy
Stream size : 117 MiB (2%)
Language : Russian
Default : No
Forced : No
Audio #6
ID : 7
Format : AC-3
Format/Info : Audio Coding 3
Mode extension : CM (complete main)
Format settings, Endianness : Big
Codec ID : A_AC3
Duration : 1h 25mn
Bit rate mode : Constant
Bit rate : 224 Kbps
Channel(s) : 2 channels
Channel positions : Front: L R
Sampling rate : 48.0 KHz
Compression mode : Lossy
Stream size : 137 MiB (2%)
Title : Гранкин
Language : Russian
Default : No
Forced : No
Audio #7
ID : 8
Format : AC-3
Format/Info : Audio Coding 3
Mode extension : CM (complete main)
Format settings, Endianness : Big
Codec ID : A_AC3
Duration : 1h 25mn
Bit rate mode : Constant
Bit rate : 384 Kbps
Channel(s) : 6 channels
Channel positions : Front: L C R, Side: L R, LFE
Sampling rate : 48.0 KHz
Compression mode : Lossy
Stream size : 235 MiB (3%)
Language : Ukrainian
Default : No
Forced : No
Audio #8
ID : 9
Format : AC-3
Format/Info : Audio Coding 3
Mode extension : CM (complete main)
Format settings, Endianness : Big
Codec ID : A_AC3
Duration : 1h 25mn
Bit rate mode : Constant
Bit rate : 448 Kbps
Channel(s) : 6 channels
Channel positions : Front: L C R, Side: L R, LFE
Sampling rate : 48.0 KHz
Compression mode : Lossy
Stream size : 274 MiB (4%)
Language : English
Default : No
Forced : No
Text #1
ID : 10
Format : UTF-8
Codec ID : S_TEXT/UTF8
Codec ID/Info : UTF-8 Plain Text
Language : Russian
Default : No
Forced : No
Text #2
ID : 11
Format : UTF-8
Codec ID : S_TEXT/UTF8
Codec ID/Info : UTF-8 Plain Text
Language : English
Default : No
Forced : No

Скриншоты


_________________
Показать сообщения:    

Текущее время: Сегодня 06:15

Часовой пояс: GMT



Вы не можете начинать темы
Вы не можете отвечать на сообщения
Вы не можете редактировать свои сообщения
Вы не можете удалять свои сообщения
Вы не можете голосовать в опросах
Вы не можете прикреплять файлы к сообщениям
Вы не можете скачивать файлы