Важное объявление!
У Нас Все раздачи мультитрекерные, при нуле пиров в релизах, можете смело вставать на закачку!
 
Автор Сообщение

HUNTER

Стаж:
4 года 4 месяца
Сообщений:
56722

Репутация: 101

[+] [-]
Вне форума [Профиль] [ЛС]

Недетские танцы / Battlefield America
Страна: США
Студия: Brian & Barrett Pictures
Жанр: мюзикл, драма
Год выпуска: 2012
Продолжительность: 01:45:00
Перевод: Профессиональный (дублированный) студия «Back Board Cinema»
Перевод 2: Одноголосый закадровый
Cубтитры: нет
Оригинальная аудиодорожка: английский
Режиссер: Крис Стоукс / Chris Stokes
В ролях: Маркус Хьюстон, Мекиа Кокс, Линн Уитфилд, Тристен М. Картер, Чандлер Кинни, Трэйси Хеггинс, Кристофер Джонс, Джо Райт, Валери Петтифорд, Гари Стургис
Описание: Новый фильм лучшей танцевальной команды Америки! Предназначено для молодых, дерзких и амбициозных! В этом фильме вы не увидите: катастроф, похищений, погонь и прочего и прочего. Вы увидите таких же как вы — пацанов и девчонок. А еще: шикарные танцевальные номера, модный саундтрек, отличные трюки, эмоции, которые бьют через край, батлы за честь, уважение и любовь. Хочешь быть лучшим? Стань лучшим! Будь лучше всех! Ты точно сможешь!

Sample
Тип релиза: WEB-DL 1080p
Контейнер: MKV
Видео: MPEG4 AVC Video, 16:9, 1920x816, 23,976 fps, 4703 Kbps
Аудио: Russian (AC3, 6 ch, 448 kbps, 16 bits, 48.0 KHz) - Dub
Аудио 2: Russian (AC3, 6 ch, 448 kbps, 16 bits, 48.0 KHz) - Vo
Аудио 3: English (AC3, 6 ch, 384 kbps, 16 bits, 48.0 KHz) - оригинал

MediaInfo

General
Unique ID : 204807625733022507652811342228275376928 (0x9A14839082BCCAA2B30550DFD330B320)
Complete name : E:\1\Недетские танцы 2012 WEB-DL 1080p.mkv
Format : Matroska
Format version : Version 4 / Version 2
File size : 4.48 GiB
Duration : 1h 45mn
Overall bit rate : 6 105 Kbps
Encoded date : UTC 2014-08-08 15:34:50
Writing application : mkvmerge v6.1.0 ('Old Devil') built on Mar 2 2013 14:32:37
Writing library : libebml v1.3.0 + libmatroska v1.4.0
Video
ID : 1
Format : AVC
Format/Info : Advanced Video Codec
Format profile : High@L4.0
Format settings, CABAC : Yes
Format settings, ReFrames : 5 frames
Codec ID : V_MPEG4/ISO/AVC
Duration : 1h 45mn
Bit rate : 4 703 Kbps
Width : 1 920 pixels
Height : 816 pixels
Display aspect ratio : 2.35:1
Frame rate mode : Constant
Frame rate : 23.976 fps
Color space : YUV
Chroma subsampling : 4:2:0
Bit depth : 8 bits
Scan type : Progressive
Bits/(Pixel*Frame) : 0.125
Stream size : 3.45 GiB (77%)
Language : English
Default : Yes
Forced : No
Color primaries : BT.709
Transfer characteristics : BT.709
Matrix coefficients : BT.709
Audio #1
ID : 2
Format : AC-3
Format/Info : Audio Coding 3
Mode extension : CM (complete main)
Format settings, Endianness : Big
Codec ID : A_AC3
Duration : 1h 45mn
Bit rate mode : Constant
Bit rate : 448 Kbps
Channel count : 6 channels
Channel positions : Front: L C R, Side: L R, LFE
Sampling rate : 48.0 KHz
Bit depth : 16 bits
Compression mode : Lossy
Stream size : 336 MiB (7%)
Title : Dub
Language : Russian
Default : Yes
Forced : No
Audio #2
ID : 3
Format : AC-3
Format/Info : Audio Coding 3
Mode extension : CM (complete main)
Format settings, Endianness : Big
Codec ID : A_AC3
Duration : 1h 45mn
Bit rate mode : Constant
Bit rate : 448 Kbps
Channel count : 6 channels
Channel positions : Front: L C R, Side: L R, LFE
Sampling rate : 48.0 KHz
Bit depth : 16 bits
Compression mode : Lossy
Stream size : 336 MiB (7%)
Title : VO
Language : Russian
Default : No
Forced : No
Audio #3
ID : 4
Format : AC-3
Format/Info : Audio Coding 3
Mode extension : CM (complete main)
Format settings, Endianness : Big
Codec ID : A_AC3
Duration : 1h 45mn
Bit rate mode : Constant
Bit rate : 384 Kbps
Channel count : 6 channels
Channel positions : Front: L C R, Side: L R, LFE
Sampling rate : 48.0 KHz
Bit depth : 16 bits
Compression mode : Lossy
Stream size : 288 MiB (6%)
Language : English
Default : No
Forced : No
Menu
00:00:00.000 : en:Chapter 01
00:08:02.000 : en:Chapter 02
00:16:46.000 : en:Chapter 03
00:26:03.000 : en:Chapter 04
00:35:50.000 : en:Chapter 05
00:44:08.000 : en:Chapter 06
00:52:54.000 : en:Chapter 07
01:02:49.000 : en:Chapter 08
01:12:35.000 : en:Chapter 09
01:21:43.000 : en:Chapter 10
01:31:18.000 : en:Chapter 11
01:42:06.000 : en:Chapter 12

Скриншоты


_________________
Показать сообщения:    

Текущее время: Сегодня 12:22

Часовой пояс: GMT



Вы не можете начинать темы
Вы не можете отвечать на сообщения
Вы не можете редактировать свои сообщения
Вы не можете удалять свои сообщения
Вы не можете голосовать в опросах
Вы не можете прикреплять файлы к сообщениям
Вы не можете скачивать файлы