Важное объявление!
У Нас Все раздачи мультитрекерные, при нуле пиров в релизах, можете смело вставать на закачку!
 
Автор Сообщение

HUNTER

Стаж:
4 года 4 месяца
Сообщений:
56733

Репутация: 101

[+] [-]
Вне форума [Профиль] [ЛС]

Невозмутимый / Холодный как камень / Без эмоций / Stone Cold
Страна: США
Жанр: боевик, драма, криминал
Год выпуска: 1991
Продолжительность: 01:32:01
-
Перевод 1: Профессиональный (двухголосый закадровый) НТВ+
Перевод 2: Авторский (одноголосый закадровый) Андрей Гаврилов
Перевод 3: Авторский (одноголосый закадровый) Алексей Михалёв
Перевод 4: Авторский (одноголосый закадровый) Василий Горчаков
Cубтитры: английские (Full)
Оригинальная аудиодорожка: английский
-
Режиссер: Крэйг Р. Бэксли / Craig R. Baxley
В ролях: Брайан Босворт, Лэнс Хенриксен, Иллэна Дайамант, Уильям Форсайт, Арабелла Хольцбог, Сэм МакМюррей, Ричард Гант, Пауло Тока, Дэвид Тресс, Ивэн Джеймс
-
Описание: Джо Хафф — полицейский, который внедряется в банду рокеров, терроризирующую городок в штате Миссисипи, подминая под себя не только рядовых его жителей и подпольных бизнесменов, но и местные органы власти, включая представителей правосудия. Внешность и манеры поведения Джо позволяют ему выдать себя среди рокеров за своего и под именем Джо Стоуна начать разработку операции по захвату всей моторизованной и до зубов вооруженной банды, которой руководит безжалостный Чейнз.
-

-
Сэмпл: https://www.sendspace.com/file/p97it5
-
Тип релиза: BDRemux 1080p
Контейнер: MKV
Видео: 1920x1080p (16:9), 23.976 fps, 19981 kbps
Аудио 1: русский / AC3 / 2.0 / 48 kHz / 224 kbps / 16 bit || DVO
Аудио 2: русский / AC3 / 2.0 / 48 kHz / 224 kbps / 16 bit || AVO
Аудио 3: русский / AC3 / 2.0 / 48 kHz / 224 kbps / 16 bit || AVO
Аудио 4: русский / AC3 / 2.0 / 48 kHz / 224 kbps / 16 bit || AVO
Аудио 5: английский / DTS-HD MA / 5.1 / 48 kHz / 2139 kbps / 16 bit || (DTS Core: 5.1, 48 kHz, 768 Kbps, 16 bit) ENG
Формат субтитров: softsub (SRT)
Главы: есть

Доп. информация

Скачано с Кинозала, сборка от NovaLan (Автор сборки Sergei7721) Убрана немецкая дорожка. Спасибо.

MediaInfo

General
Unique ID : 176797664084318393965646964757254826000 (0x8501FDD549CAE8E99C3276DFB7F2E810)
Complete name : C:\Users\ALEX\Downloads\Фильмы\HD\Stone Cold.1991.BDRemux.1080p.4xRus.Eng.Sub.Chpt.mkv
Format : Matroska
Format version : Version 4 / Version 2
File size : 14.8 GiB
Duration : 1h 32mn
Overall bit rate mode : Variable
Overall bit rate : 23.0 Mbps
Encoded date : UTC 2014-10-12 09:43:15
Writing application : mkvmerge v6.6.0 ('The Edge Of The In Between') built on Dec 1 2013 17:55:00
Writing library : libebml v1.3.0 + libmatroska v1.4.1
Video
ID : 1
Format : AVC
Format/Info : Advanced Video Codec
Format profile : High@L4.1
Format settings, CABAC : Yes
Format settings, ReFrames : 4 frames
Codec ID : V_MPEG4/ISO/AVC
Duration : 1h 32mn
Bit rate mode : Variable
Maximum bit rate : 35.0 Mbps
Width : 1 920 pixels
Height : 1 080 pixels
Display aspect ratio : 16:9
Frame rate mode : Constant
Frame rate : 23.976 fps
Standard : NTSC
Color space : YUV
Chroma subsampling : 4:2:0
Bit depth : 8 bits
Scan type : Progressive
Title : Stone Cold 1991
Language : English
Default : Yes
Forced : No
Color primaries : BT.709
Transfer characteristics : BT.709
Matrix coefficients : BT.709
Audio #1
ID : 2
Format : AC-3
Format/Info : Audio Coding 3
Format profile : Dolby Digital
Mode extension : CM (complete main)
Format settings, Endianness : Big
Codec ID : A_AC3
Duration : 1h 32mn
Bit rate mode : Constant
Bit rate : 224 Kbps
Channel(s) : 2 channels
Channel positions : Front: L R
Sampling rate : 48.0 KHz
Bit depth : 16 bits
Compression mode : Lossy
Stream size : 147 MiB (1%)
Title : DVO (НТВ+)
Language : Russian
Default : Yes
Forced : No
Audio #2
ID : 3
Format : AC-3
Format/Info : Audio Coding 3
Format profile : Dolby Digital
Mode extension : CM (complete main)
Format settings, Endianness : Big
Codec ID : A_AC3
Duration : 1h 32mn
Bit rate mode : Constant
Bit rate : 224 Kbps
Channel(s) : 2 channels
Channel positions : Front: L R
Sampling rate : 48.0 KHz
Bit depth : 16 bits
Compression mode : Lossy
Stream size : 147 MiB (1%)
Title : AVO (Андрей Гаврилов)
Language : Russian
Default : No
Forced : No
Audio #3
ID : 4
Format : AC-3
Format/Info : Audio Coding 3
Format profile : Dolby Digital
Mode extension : CM (complete main)
Format settings, Endianness : Big
Codec ID : A_AC3
Duration : 1h 32mn
Bit rate mode : Constant
Bit rate : 224 Kbps
Channel(s) : 2 channels
Channel positions : Front: L R
Sampling rate : 48.0 KHz
Bit depth : 16 bits
Compression mode : Lossy
Stream size : 147 MiB (1%)
Title : AVO (Алексей Михалев)
Language : Russian
Default : No
Forced : No
Audio #4
ID : 5
Format : AC-3
Format/Info : Audio Coding 3
Format profile : Dolby Digital
Mode extension : CM (complete main)
Format settings, Endianness : Big
Codec ID : A_AC3
Duration : 1h 32mn
Bit rate mode : Constant
Bit rate : 224 Kbps
Channel(s) : 2 channels
Channel positions : Front: L R
Sampling rate : 48.0 KHz
Bit depth : 16 bits
Compression mode : Lossy
Stream size : 147 MiB (1%)
Title : AVO (Василий Горчаков)
Language : Russian
Default : No
Forced : No
Audio #5
ID : 6
Format : DTS
Format/Info : Digital Theater Systems
Format profile : MA / Core
Mode : 16
Format settings, Endianness : Big
Codec ID : A_DTS
Duration : 1h 32mn
Bit rate mode : Variable
Bit rate : Unknown / 768 Kbps
Channel(s) : 6 channels
Channel positions : Front: L C R, Side: L R, LFE
Sampling rate : 48.0 KHz
Bit depth : 16 bits
Compression mode : Lossless / Lossy
Title : Original
Language : English
Default : No
Forced : No
Text
ID : 7
Format : UTF-8
Codec ID : S_TEXT/UTF8
Codec ID/Info : UTF-8 Plain Text
Title : Full
Language : English
Default : No
Forced : No
Menu
00:00:00.000 : en:Chapter 1
00:06:30.973 : en:Chapter 2
00:17:19.955 : en:Chapter 3
00:23:31.993 : en:Chapter 4
00:29:25.930 : en:Chapter 5
00:36:54.003 : en:Chapter 6
00:43:53.005 : en:Chapter 7
00:51:54.986 : en:Chapter 8
00:58:08.902 : en:Chapter 9
01:05:06.902 : en:Chapter 10
01:13:19.561 : en:Chapter 11
01:27:50.932 : en:Chapter 12

Скриншоты


_________________
Показать сообщения:    

Текущее время: Сегодня 18:15

Часовой пояс: GMT



Вы не можете начинать темы
Вы не можете отвечать на сообщения
Вы не можете редактировать свои сообщения
Вы не можете удалять свои сообщения
Вы не можете голосовать в опросах
Вы не можете прикреплять файлы к сообщениям
Вы не можете скачивать файлы