Важное объявление!
У Нас Все раздачи мультитрекерные, при нуле пиров в релизах, можете смело вставать на закачку!
 
Автор Сообщение

HUNTER

Стаж:
4 года 4 месяца
Сообщений:
56839

Репутация: 101

[+] [-]
Вне форума [Профиль] [ЛС]

Невероятный Блинки Билл / Blinky Bill the Movie-
Страна: Австралия, США
Жанр: мультфильм, приключения, семейный
Год выпуска: 2015
Продолжительность: 01:30:57-Перевод: Профессиональный (дублированный) - Мосфильм-мастер-Режиссеры: Дин Тейлор, Ноэль Клири, Алекс Стадерманн, Алекс Вейт / Deane Taylor, Noel Cleary, Alexs Stadermann, Alex Weight
Роли озвучивали: Тони Коллетт, Руфус Сьюэлл, Робин МакЛиви, Дэвид Уэнэм, Райан Квантен, Ричард Роксбург, Бэрри Хамфриз, Дебора Мэйлман, Бэрри Отто, Фин Эдквист...-Описание: Блинки Билл — очаровательный и озорной медвежонок-коала, который никого не боится и никогда не сдается. Вместе с друзьями — веселой ящерицей и добрыми страусами Эму — ему надо преодолеть миллион опасностей в диких джунглях, чтобы найти пропавшего отца.
Новые герои, яркий красочный мир экзотического континента и настоящее большое приключение!- | Релиз: -Семпл: http://sendfile.su/1259021-Тип релиза: BDRip 720p
Контейнер: MKV
Видео: 1280x688 (1.860), 24.000 fps, AVC, ~3621 kbps, 0.171 bits/pixel
Аудио 1: Russian, 48.0 KHz, AC3, 6 ch, 448 kbps - Дубляж "Мосфильм-мастер"
Аудио 2: English, 48.0 KHz, DTS, 6 ch, 1509 kbps - Original
Cубтитры: English (Full, SDH)

MediaInfo

GeneralUnique ID : 198462697646685294283113772584015728832 (0x954E867517377739BCE4C4252BBB90C0)Complete name : Blinky.Bill.The.Movie.2015.720p.BDRip-rutracker.mkvFormat : MatroskaFormat version : Version 4 / Version 2File size : 3.55 GiBDuration : 1 h 30 minOverall bit rate : 5 581 kb/sEncoded date : UTC 2016-08-21 14:28:43Writing application : mkvmerge v8.3.0 ('Over the Horizon') 64bitWriting library : libebml v1.3.1 + libmatroska v1.4.2
VideoID : 1Format : AVCFormat/Info : Advanced Video CodecFormat profile : High@L4.1Format settings, CABAC : YesFormat settings, ReFrames : 5 framesCodec ID : V_MPEG4/ISO/AVCDuration : 1 h 30 minBit rate : 3 621 kb/sWidth : 1 280 pixelsHeight : 688 pixelsDisplay aspect ratio : 1.85:1Frame rate mode : ConstantFrame rate : 24.000 FPSColor space : YUVChroma subsampling : 4:2:0Bit depth : 8 bitsScan type : ProgressiveBits/(Pixel*Frame) : 0.171Stream size : 2.23 GiB (63%)Title : Blinky.Bill.The.Movie.2015.720p.BluRay.x264-PFaWriting library : x264 core 148 r2665 a01e339Encoding settings : cabac=1 / ref=5 / deblock=1:0:0 / analyse=0x3:0x133 / me=umh / subme=8 / psy=1 / psy_rd=1.00:0.00 / mixed_ref=1 / me_range=16 / chroma_me=1 / trellis=1 / 8x8dct=1 / cqm=0 / deadzone=21,11 / fast_pskip=0 / chroma_qp_offset=-2 / threads=12 / lookahead_threads=2 / sliced_threads=0 / nr=0 / decimate=1 / interlaced=0 / bluray_compat=0 / constrained_intra=0 / bframes=3 / b_pyramid=2 / b_adapt=1 / b_bias=0 / direct=1 / weightb=1 / open_gop=0 / weightp=2 / keyint=250 / keyint_min=23 / scenecut=40 / intra_refresh=0 / rc_lookahead=40 / rc=2pass / mbtree=1 / bitrate=3621 / ratetol=1.0 / qcomp=0.60 / qpmin=0 / qpmax=69 / qpstep=4 / cplxblur=20.0 / qblur=0.5 / ip_ratio=1.40 / aq=1:1.00Language : EnglishDefault : YesForced : No
Audio #1ID : 2Format : AC-3Format/Info : Audio Coding 3Mode extension : CM (complete main)Format settings, Endianness : BigCodec ID : A_AC3Duration : 1 h 30 minBit rate mode : ConstantBit rate : 448 kb/sChannel(s) : 6 channelsChannel positions : Front: L C R, Side: L R, LFESampling rate : 48.0 kHzFrame rate : 31.250 FPS (1536 spf)Compression mode : LossyStream size : 291 MiB (8%)Title : Дубляж "Мосфильм-мастер"Language : RussianDefault : YesForced : No
Audio #2ID : 3Format : DTSFormat/Info : Digital Theater SystemsMode : 16Format settings, Endianness : BigCodec ID : A_DTSDuration : 1 h 30 minBit rate mode : ConstantBit rate : 1 509 kb/sChannel(s) : 6 channelsChannel positions : Front: L C R, Side: L R, LFESampling rate : 48.0 kHzFrame rate : 93.750 FPS (512 spf)Bit depth : 16 bitsCompression mode : LossyStream size : 982 MiB (27%)Title : OriginalLanguage : EnglishDefault : NoForced : No
Text #1ID : 4Format : UTF-8Codec ID : S_TEXT/UTF8Codec ID/Info : UTF-8 Plain TextTitle : FullLanguage : EnglishDefault : NoForced : No
Text #2ID : 5Format : UTF-8Codec ID : S_TEXT/UTF8Codec ID/Info : UTF-8 Plain TextTitle : SDHLanguage : EnglishDefault : NoForced : No

Скриншоты


_________________
Показать сообщения:    

Текущее время: Сегодня 01:25

Часовой пояс: GMT



Вы не можете начинать темы
Вы не можете отвечать на сообщения
Вы не можете редактировать свои сообщения
Вы не можете удалять свои сообщения
Вы не можете голосовать в опросах
Вы не можете прикреплять файлы к сообщениям
Вы не можете скачивать файлы