Важное объявление!
У Нас Все раздачи мультитрекерные, при нуле пиров в релизах, можете смело вставать на закачку!
 
Автор Сообщение

HUNTER

Стаж:
4 года 4 месяца
Сообщений:
56839

Репутация: 101

[+] [-]
Вне форума [Профиль] [ЛС]

Невероятная жизнь Уолтера Митти / The Secret Life of Walter Mitty-
Страна: США
Жанр: приключения, мелодрама, драма, комедия, фэнтези
Год выпуска: 2013
Продолжительность: 01:54:34
Перевод: Профессиональный (дублированный) BD CEE
+ Авторский одноголосый закадровый Живов
Cубтитры: русские, украинские, английские
Оригинальная аудиодорожка: английский-Режиссер: Бен Стиллер / Ben Stiller
В ролях: Бен Стиллер, Кристен Уиг, Адам Скотт, Ширли МакЛейн, Кэтрин Хан, Шон Пенн, Пэттон Освальт, Адриан Мартинес, Олафур Дарри Олафссон, Маркус Анттури.
Описание: Уолтер Митти — обычный скромный мужчина, работающий в издательстве популярного журнала Life. Он живет очень скучной и однообразной жизнью, в которой есть только одна радость — привлекательная коллега Шерил. Однако он не может набраться смелости и подойди к ней. Уолтер очень много мечтает и в своих мыслях он совершает невероятные приключения, представляя себя самым настоящим супергероем. В один прекрасный момент ему поручают отыскать фотографию известного путешественника Шона О' Коннела, необходимую для очередного выпуска журнала. Но это задание оказывается очень сложным, ведь куда проще найти самого Шона, чем его старую фотографию. Отправившись на поиски путешественника, Уолтер даже не догадывался о том, что впереди его ждет незабываемое приключение, после которого его жизнь изменится самым кардинальным образом...-Качество: BDRemux 1080p | CEE
Контейнер: MKV | Sample
Видео: 1920x1080 (16:9), 23.976 fps, x264@L4.1 ~25075 kbps avg
Аудио 1: Russian 48 kHz, DTS, 3/2 (L,C,R,l,r) + LFE ch, 768.00 kbps avg | BD CEE
Аудио 2: Ukrainian 48 kHz, AC3, 3/2 (L,C,R,l,r) + LFE ch, 448.00 kbps avg | BD CEE
Аудио 3: Russian 48 kHz, DTS HD MA 7.1, 4456.00 kbps avg / 48 kHz, DTS Core 5.1, 1509.00 kbps avg | Живов
Аудио 4: English 48 kHz, DTS HD MA 7.1, 4456.00 kbps avg / 48 kHz, DTS Core 5.1, 1509.00 kbps avg | Original

Скриншоты

Медиаинфо

Общее
Формат : Matroska
Версия формата : Version 4 / Version 2
Размер файла : 28,2 Гбайт
Продолжительность : 1 ч. 54 м.
Режим общего битрейта : Переменный
Общий поток : 35,2 Мбит/сек
Название фильма : The Secret Life of Walter Mitty 2013
Дата кодирования : UTC 2014-07-31 16:07:47
Программа кодирования : mkvmerge v6.1.0 ('Old Devil') built on Mar 4 2013 09:10:42
Библиотека кодирования : libebml v1.3.0 + libmatroska v1.4.0
Видео
Идентификатор : 1
Формат : AVC
Формат/Информация : Advanced Video Codec
Профиль формата : High@L4.1
Параметр CABAC формата : Да
Параметр ReFrames формата : 4 кадра
Идентификатор кодека : V_MPEG4/ISO/AVC
Продолжительность : 1 ч. 54 м.
Вид битрейта : Переменный
Максимальный битрейт : 34,3 Мбит/сек
Ширина : 1920 пикселей
Высота : 1080 пикселей
Соотношение сторон : 16:9
Режим частоты кадров : Постоянный
Частота кадров : 23,976 кадра/сек
Цветовое пространство : YUV
Субдискретизация насыщенности : 4:2:0
Битовая глубина : 8 бит
Тип развёртки : Прогрессивная
Заголовок : Blu-ray Remux CEE
Язык : English
Default : Да
Forced : Нет
Аудио #1
Идентификатор : 2
Формат : DTS
Формат/Информация : Digital Theater Systems
Режим : 16
Параметр Endianness формата : Big
Идентификатор кодека : A_DTS
Продолжительность : 1 ч. 54 м.
Вид битрейта : Постоянный
Битрейт : 768 Кбит/сек
Каналы : 6 каналов
Расположение каналов : Front: L C R, Side: L R, LFE
Частота : 48,0 КГц
Битовая глубина : 24 бит
Метод сжатия : С потерями
Размер потока : 629 Мбайт (2%)
Заголовок : BD CEE
Язык : Russian
Default : Да
Forced : Нет
Аудио #2
Идентификатор : 3
Формат : AC-3
Формат/Информация : Audio Coding 3
Расширение режима : CM (complete main)
Параметр Endianness формата : Big
Идентификатор кодека : A_AC3
Продолжительность : 1 ч. 54 м.
Вид битрейта : Постоянный
Битрейт : 448 Кбит/сек
Каналы : 6 каналов
Расположение каналов : Front: L C R, Side: L R, LFE
Частота : 48,0 КГц
Битовая глубина : 16 бит
Метод сжатия : С потерями
Размер потока : 367 Мбайт (1%)
Заголовок : BD CEE
Язык : Ukrainian
Default : Нет
Forced : Нет
Аудио #3
Идентификатор : 4
Формат : DTS
Формат/Информация : Digital Theater Systems
Профиль формата : MA / Core
Режим : 16
Параметр Endianness формата : Big
Идентификатор кодека : A_DTS
Продолжительность : 1 ч. 54 м.
Вид битрейта : Переменный
Битрейт : Неизвестно / 1509 Кбит/сек
Каналы : 8 каналов / 6 каналов
Расположение каналов : Front: L C R, Side: L R, Back: L R, LFE / Front: L C R, Side: L R, LFE
Частота : 48,0 КГц
Битовая глубина : 24 бит
Метод сжатия : Без потерь / Lossy
Заголовок : AVO Живов
Язык : Russian
Default : Нет
Forced : Нет
Аудио #4
Идентификатор : 5
Формат : DTS
Формат/Информация : Digital Theater Systems
Профиль формата : MA / Core
Режим : 16
Параметр Endianness формата : Big
Идентификатор кодека : A_DTS
Продолжительность : 1 ч. 54 м.
Вид битрейта : Переменный
Битрейт : Неизвестно / 1509 Кбит/сек
Каналы : 8 каналов / 6 каналов
Расположение каналов : Front: L C R, Side: L R, Back: L R, LFE / Front: L C R, Side: L R, LFE
Частота : 48,0 КГц
Битовая глубина : 24 бит
Метод сжатия : Без потерь / Lossy
Заголовок : Original
Язык : English
Default : Нет
Forced : Нет
Текст #1
Идентификатор : 6
Формат : UTF-8
Идентификатор кодека : S_TEXT/UTF8
Идентификатор кодека/Информация : UTF-8 Plain Text
Заголовок : Forced
Язык : Russian
Default : Да
Forced : Нет
Текст #2
Идентификатор : 7
Формат : UTF-8
Идентификатор кодека : S_TEXT/UTF8
Идентификатор кодека/Информация : UTF-8 Plain Text
Заголовок : Full
Язык : Russian
Default : Нет
Forced : Нет
Текст #3
Идентификатор : 8
Формат : UTF-8
Идентификатор кодека : S_TEXT/UTF8
Идентификатор кодека/Информация : UTF-8 Plain Text
Заголовок : Forced
Язык : Ukrainian
Default : Нет
Forced : Нет
Текст #4
Идентификатор : 9
Формат : UTF-8
Идентификатор кодека : S_TEXT/UTF8
Идентификатор кодека/Информация : UTF-8 Plain Text
Заголовок : Forced
Язык : English
Default : Нет
Forced : Нет
Текст #5
Идентификатор : 10
Формат : UTF-8
Идентификатор кодека : S_TEXT/UTF8
Идентификатор кодека/Информация : UTF-8 Plain Text
Заголовок : Full
Язык : English
Default : Нет
Forced : Нет
Текст #6
Идентификатор : 11
Формат : UTF-8
Идентификатор кодека : S_TEXT/UTF8
Идентификатор кодека/Информация : UTF-8 Plain Text
Заголовок : Full SDH
Язык : English
Default : Нет
Forced : Нет
Текст #7
Идентификатор : 12
Формат : UTF-8
Идентификатор кодека : S_TEXT/UTF8
Идентификатор кодека/Информация : UTF-8 Plain Text
Заголовок : Full SDH Color
Язык : English
Default : Нет
Forced : Нет
Меню
00:00:00.000 : :Chapter 01
00:02:51.004 : :Chapter 03
00:05:39.756 : :Chapter 05
00:08:33.971 : :Chapter 07
00:10:54.570 : :Chapter 09
00:13:52.248 : :Chapter 11
00:17:48.233 : :Chapter 13
00:20:39.655 : :Chapter 15
00:23:33.245 : :Chapter 17
00:26:31.381 : :Chapter 19
00:30:08.264 : :Chapter 21
00:32:19.520 : :Chapter 23
00:35:01.057 : :Chapter 25
00:38:18.838 : :Chapter 27
00:40:31.846 : :Chapter 29
00:44:51.480 : :Chapter 31
00:48:13.890 : :Chapter 33
00:51:29.669 : :Chapter 35
00:54:36.273 : :Chapter 37
00:57:28.403 : :Chapter 39
01:00:02.140 : :Chapter 41
01:03:10.620 : :Chapter 43
01:05:28.382 : :Chapter 45
01:09:27.288 : :Chapter 47
01:11:23.028 : :Chapter 49
01:14:06.650 : :Chapter 51
01:18:31.748 : :Chapter 53
01:22:50.882 : :Chapter 55
01:28:52.535 : :Chapter 57
01:30:24.460 : :Chapter 59
01:33:54.670 : :Chapter 61
01:35:39.483 : :Chapter 63
01:38:24.356 : :Chapter 65
01:39:48.273 : :Chapter 67
01:43:01.675 : :Chapter 69
01:44:28.262 : :Chapter 71
01:54:34.659 : :Chapter 72

_________________
Показать сообщения:    

Текущее время: Сегодня 22:28

Часовой пояс: GMT



Вы не можете начинать темы
Вы не можете отвечать на сообщения
Вы не можете редактировать свои сообщения
Вы не можете удалять свои сообщения
Вы не можете голосовать в опросах
Вы не можете прикреплять файлы к сообщениям
Вы не можете скачивать файлы