Важное объявление!
У Нас Все раздачи мультитрекерные, при нуле пиров в релизах, можете смело вставать на закачку!
 
Автор Сообщение

HUNTER

Стаж:
4 года 4 месяца
Сообщений:
56734

Репутация: 101

[+] [-]
Вне форума [Профиль] [ЛС]

Невероятная жизнь Уолтера Митти / The Secret Life of Walter Mitty-
Страна: США
Студия: 20th Century Fox Film Corporation
Жанр: приключения, мелодрама, драма, комедия, фэнтези
Год выпуска: 2013
Продолжительность: 1h 54mn 51s
Перевод: Профессиональный (дублированный) iTunes
Cубтитры: нет
Оригинальная аудиодорожка: английский
Режиссер: Бен Стиллер / Ben Stiller
В ролях
Бен Стиллер / Ben Stiller (Walter Mitty)
Кристен Уиг (Cheryl Melhoff), Адам Скотт (Ted Hendricks), Ширли МакЛейн (Edna Mitty), Кэтрин Хан (Odessa Mitty), Шон Пенн (Sean O'Connell), Пэттон Освальт (Todd Maher), Адриан Мартинес (Hernando), Олафур Дарри Олафссон (Helicopter Pilot), Маркус Анттури (Rich Melhoff), Джон Дэйли (Tim Naughton), Теренс Берни Хайнс (Gary Mannheim)-ОписаниеКто сказал, что в сердце маленького человека не могут жить великие мечты? Даже скромному и незаметному служащему хочется иногда совершить пусть безумные, но геройские поступки, поверить в свою силу и мужество. Почему всех спасать должны исключительно супермены?-Сэмпл

IMDb: 7.50 (80 031)
Тип релиза: WEB-DL 720p
Контейнер: MKV
Видео: AVC 3877 Kbps 1280 x 532 (2.406) 23.976 fps
Аудио: AC-3 384 Kbps 6 channels, 48.0 KHz iTunes
Аудио 2: AC-3 384 Kbps 6 channels, 48.0 KHz ENG

MediaInfo

Format : Matroska
Format version : Version 4 / Version 2
File size : 3.80 GiB
Duration : 1h 54mn
Overall bit rate : 4 739 Kbps
Encoded date : UTC 2014-03-25 19:06:49
Writing application : mkvmerge v6.5.0 ('Isn't she lovely') built on Oct 20 2013 12:50:05
Writing library : libebml v1.3.0 + libmatroska v1.4.1
Video
ID : 1
Format : AVC
Format/Info : Advanced Video Codec
Format profile : Main@L3.1
Format settings, CABAC : No
Format settings, ReFrames : 2 frames
Codec ID : V_MPEG4/ISO/AVC
Duration : 1h 54mn
Bit rate : 3 877 Kbps
Width : 1 280 pixels
Height : 532 pixels
Display aspect ratio : 2.40:1
Frame rate mode : Constant
Frame rate : 23.976 fps
Color space : YUV
Chroma subsampling : 4:2:0
Bit depth : 8 bits
Scan type : Progressive
Bits/(Pixel*Frame) : 0.237
Stream size : 3.11 GiB (82%)
Language : English
Default : Yes
Forced : No
Color primaries : BT.709
Transfer characteristics : BT.709
Matrix coefficients : BT.709
Audio #1
ID : 2
Format : AC-3
Format/Info : Audio Coding 3
Mode extension : CM (complete main)
Format settings, Endianness : Big
Codec ID : A_AC3
Duration : 1h 54mn
Bit rate mode : Constant
Bit rate : 384 Kbps
Channel(s) : 6 channels
Channel positions : Front: L C R, Side: L R, LFE
Sampling rate : 48.0 KHz
Bit depth : 16 bits
Compression mode : Lossy
Stream size : 315 MiB (8%)
Language : Russian
Default : Yes
Forced : No
Audio #2
ID : 3
Format : AC-3
Format/Info : Audio Coding 3
Mode extension : CM (complete main)
Format settings, Endianness : Big
Codec ID : A_AC3
Duration : 1h 54mn
Bit rate mode : Constant
Bit rate : 384 Kbps
Channel(s) : 6 channels
Channel positions : Front: L C R, Side: L R, LFE
Sampling rate : 48.0 KHz
Bit depth : 16 bits
Compression mode : Lossy
Stream size : 315 MiB (8%)
Language : English
Default : No
Forced : No
Menu
00:00:00.000 : en:1
00:02:49.000 : en:2
00:05:38.000 : en:3
00:08:32.000 : en:4
00:10:52.000 : en:5
00:13:50.000 : en:6
00:17:46.000 : en:7
00:20:37.000 : en:8
00:23:30.000 : en:9
00:26:28.000 : en:10
00:30:05.000 : en:11
00:32:16.000 : en:12
00:34:57.000 : en:13
00:38:15.000 : en:14
00:40:28.000 : en:15
00:44:47.000 : en:16
00:48:09.000 : en:17
00:51:25.000 : en:18
00:54:31.000 : en:19
00:57:23.000 : en:20
00:59:57.000 : en:21
01:03:05.000 : en:22
01:05:23.000 : en:23
01:09:21.000 : en:24
01:11:17.000 : en:25
01:14:01.000 : en:26
01:18:25.000 : en:27
01:22:44.000 : en:28
01:28:46.000 : en:29
01:30:17.000 : en:30
01:33:47.000 : en:31
01:35:32.000 : en:32
01:38:17.000 : en:33
01:39:41.000 : en:34
01:42:54.000 : en:35
01:44:20.000 : en:36

Скриншоты


_________________
Показать сообщения:    

Текущее время: Сегодня 13:02

Часовой пояс: GMT



Вы не можете начинать темы
Вы не можете отвечать на сообщения
Вы не можете редактировать свои сообщения
Вы не можете удалять свои сообщения
Вы не можете голосовать в опросах
Вы не можете прикреплять файлы к сообщениям
Вы не можете скачивать файлы