Важное объявление!
У Нас Все раздачи мультитрекерные, при нуле пиров в релизах, можете смело вставать на закачку!
 
Автор Сообщение

HUNTER

Стаж:
4 года 4 месяца
Сообщений:
56719

Репутация: 101

[+] [-]
Вне форума [Профиль] [ЛС]

НевернаяUnfaithful«Где ты окажешься, если зайдешь слишком далеко?»-Страна: США, Германия, Франция
Жанр: триллер, драма, мелодрама
слова
Год выпуска: 2002
Продолжительность: 02:03:38-Перевод №1: Профессиональный (полное дублирование) Blu-ray CEE
Перевод №2: Профессиональный (многоголосый, закадровый)
Перевод №3: Авторский (одноголосый закадровый) (Визгунов Сергей)
Перевод №4: Авторский (одноголосый закадровый) (Живов Юрий)
Перевод №5: Авторский (одноголосый закадровый) (Карповский Антон)
Субтитры: русские (Captions), русские (Blu-ray), русские (Быстрицкие), английские, английские (Commentary)
Оригинальная аудиодорожка: английский
Режиссер: Эдриан Лайн / Adrian Lyne
В ролях: Дайан Лэйн, Ричард Гир, Оливье Мартинес, Желько Иванек, Эрик Пер Салливан, Мишель Монахэн, Гэри Басараба, Майкл Эмерсон, Мира Лукреция Тейлор, Чад Лоу-Описание: Эдварду и Конни Самнер можно позавидовать: вместе с восьмилетним сыном, собакой и домоправительницей они наслаждаются жизнью в тихом пригороде Нью-Йорка. Но судьба в облике молодого человека, с которым Конни сталкивается в Сохо, наносит удар по этому воплощению «американской мечты» и по счастливому, хотя и слегка монотонному существованию супругов.
Случайная встреча перерастает в бурный роман, в котором есть всё - тайна, спонтанность, красота и... опасность. Когда Эдвард узнаёт о том, что жена от него что-то скрывает, он начинает за ней следить, выведывая мучительные подробности обмана. Не выдержав груза тайны, он встречается с любовником Конни, и копившийся в нём гнев выходит наружу приступом страшной, неожиданной для него самого ярости. Что ждет семью, в которой поселились обман, чувство вины и страх? Есть ли у неё будущее?...-
MPAA: R - Лицам до 17 лет обязательно присутствие взрослого-Качество: BDRip 1080p (SbR)
Контейнер: MKV
Видео: x264, 1920x1040, 16054 kbps, 23,976 fps
Аудио №1: русский / DTS / 5.1 / 48 kHz / 755 kbps |Дублированный|
Аудио №2: русский / AC3 / 5.1 / 48 kHz / 448 kbps |Многоголосый|
Аудио №3: русский / AC3 / 2.0 / 48 kHz / 192 kbps |Визгунов|
Аудио №4: русский / DTS / 5.1 / 48 kHz / 1509 kbps |Живов|
Аудио №5: русский / AC3 / 5.1 / 48 kHz / 448 kbps |Карповский|
Аудио №6: английский / DTS / 5.1 / 48 kHz / 1509 kbps
Аудио №7: английский / AC3 / 2.0 / 48 kHz / 224 kbps |Комментарии|
Аудио №8: английский / AC3 / 2.0 / 48 kHz / 224 kbps |Комментарии|
Субтитры: русские (Captions), русские (Blu-ray), русские (Быстрицкие), английские, английские (Комментарии)-

Скриншоты





Media Info

General
Unique ID : 236702302673722301162954035972678661295 (0xB213348C14D9C602ADD062D1BFDCB4AF)
Complete name : D:\Unfaithful.2002.1080p.BluRay.5xRus.Eng-SbR.mkv
Format : Matroska
Format version : Version 4 / Version 2
File size : 18.5 GiB
Duration : 2h 3mn
Overall bit rate : 21.4 Mbps
Movie name : Unfaithful (2002) - Release by SbR
Encoded date : UTC 2015-06-18 06:10:30
Writing application : mkvmerge v7.9.0 ('Birds') 64bit
Writing library : libebml v1.3.1 + libmatroska v1.4.2
Attachements : cover.jpg
Video
ID : 1
Format : AVC
Format/Info : Advanced Video Codec
Format profile : High@L4.1
Format settings, CABAC : Yes
Format settings, ReFrames : 4 frames
Codec ID : V_MPEG4/ISO/AVC
Duration : 2h 3mn
Bit rate : 15.6 Mbps
Width : 1 920 pixels
Height : 1 040 pixels
Display aspect ratio : 1.85:1
Frame rate mode : Constant
Frame rate : 23.976 fps
Color space : YUV
Chroma subsampling : 4:2:0
Bit depth : 8 bits
Scan type : Progressive
Bits/(Pixel*Frame) : 0.327
Stream size : 13.5 GiB (73%)
Writing library : x264 core 146 r2538kMod 121396c
Encoding settings : cabac=1 / ref=4 / deblock=1:-2:-2 / analyse=0x3:0x133 / me=umh / subme=11 / psy=1 / fade_compensate=0.00 / psy_rd=1.00:0.00 / mixed_ref=1 / me_range=32 / chroma_me=1 / trellis=2 / 8x8dct=1 / cqm=0 / deadzone=21,11 / fast_pskip=1 / chroma_qp_offset=-2 / threads=12 / lookahead_threads=2 / sliced_threads=0 / nr=0 / decimate=1 / interlaced=0 / bluray_compat=0 / constrained_intra=0 / fgo=0 / bframes=8 / b_pyramid=2 / b_adapt=2 / b_bias=0 / direct=1 / weightb=1 / open_gop=0 / weightp=2 / keyint=250 / keyint_min=23 / scenecut=40 / intra_refresh=0 / rc_lookahead=60 / rc=crf / mbtree=0 / crf=17.2000 / qcomp=0.70 / qpmin=0 / qpmax=69 / qpstep=4 / vbv_maxrate=62500 / vbv_bufsize=78125 / crf_max=0.0 / nal_hrd=none / filler=0 / ip_ratio=1.40 / pb_ratio=1.30 / aq=1:0.80
Language : English
Default : Yes
Forced : No
Color range : Limited
Color primaries : BT.709
Transfer characteristics : BT.709
Matrix coefficients : BT.709
Audio #1
ID : 2
Format : DTS
Format/Info : Digital Theater Systems
Mode : 16
Format settings, Endianness : Big
Codec ID : A_DTS
Duration : 2h 3mn
Bit rate mode : Constant
Bit rate : 768 Kbps
Channel(s) : 6 channels
Channel positions : Front: L C R, Side: L R, LFE
Sampling rate : 48.0 KHz
Bit depth : 24 bits
Compression mode : Lossy
Stream size : 679 MiB (4%)
Title : Dub, Blu-ray CEE
Language : Russian
Default : Yes
Forced : No
Audio #2
ID : 3
Format : AC-3
Format/Info : Audio Coding 3
Mode extension : CM (complete main)
Format settings, Endianness : Big
Codec ID : A_AC3
Duration : 2h 3mn
Bit rate mode : Constant
Bit rate : 448 Kbps
Channel(s) : 6 channels
Channel positions : Front: L C R, Side: L R, LFE
Sampling rate : 48.0 KHz
Compression mode : Lossy
Stream size : 396 MiB (2%)
Title : MVO
Language : Russian
Default : No
Forced : No
Audio #3
ID : 4
Format : AC-3
Format/Info : Audio Coding 3
Mode extension : CM (complete main)
Format settings, Endianness : Big
Codec ID : A_AC3
Duration : 2h 3mn
Bit rate mode : Constant
Bit rate : 192 Kbps
Channel(s) : 2 channels
Channel positions : Front: L R
Sampling rate : 48.0 KHz
Compression mode : Lossy
Stream size : 170 MiB (1%)
Title : Визгунов
Language : Russian
Default : No
Forced : No
Audio #4
ID : 5
Format : DTS
Format/Info : Digital Theater Systems
Mode : 16
Format settings, Endianness : Big
Codec ID : A_DTS
Duration : 2h 3mn
Bit rate mode : Constant
Bit rate : 1 509 Kbps
Channel(s) : 6 channels
Channel positions : Front: L C R, Side: L R, LFE
Sampling rate : 48.0 KHz
Bit depth : 24 bits
Compression mode : Lossy
Stream size : 1.30 GiB (7%)
Title : Живов
Language : Russian
Default : No
Forced : No
Audio #5
ID : 6
Format : AC-3
Format/Info : Audio Coding 3
Mode extension : CM (complete main)
Format settings, Endianness : Big
Codec ID : A_AC3
Duration : 2h 3mn
Bit rate mode : Constant
Bit rate : 448 Kbps
Channel(s) : 6 channels
Channel positions : Front: L C R, Side: L R, LFE
Sampling rate : 48.0 KHz
Compression mode : Lossy
Stream size : 396 MiB (2%)
Title : Карповский
Language : Russian
Default : No
Forced : No
Audio #6
ID : 7
Format : DTS
Format/Info : Digital Theater Systems
Mode : 16
Format settings, Endianness : Big
Codec ID : A_DTS
Duration : 2h 3mn
Bit rate mode : Constant
Bit rate : 1 509 Kbps
Channel(s) : 6 channels
Channel positions : Front: L C R, Side: L R, LFE
Sampling rate : 48.0 KHz
Bit depth : 24 bits
Compression mode : Lossy
Stream size : 1.30 GiB (7%)
Language : English
Default : No
Forced : No
Audio #7
ID : 8
Format : AC-3
Format/Info : Audio Coding 3
Mode extension : CM (complete main)
Format settings, Endianness : Big
Codec ID : A_AC3
Duration : 2h 3mn
Bit rate mode : Constant
Bit rate : 224 Kbps
Channel(s) : 2 channels
Channel positions : Front: L R
Sampling rate : 48.0 KHz
Compression mode : Lossy
Stream size : 198 MiB (1%)
Title : Commentary
Language : English
Default : No
Forced : No
Audio #8
ID : 9
Format : AC-3
Format/Info : Audio Coding 3
Mode extension : CM (complete main)
Format settings, Endianness : Big
Codec ID : A_AC3
Duration : 2h 3mn
Bit rate mode : Constant
Bit rate : 224 Kbps
Channel(s) : 2 channels
Channel positions : Front: L R
Sampling rate : 48.0 KHz
Compression mode : Lossy
Stream size : 198 MiB (1%)
Title : Commentary
Language : English
Default : No
Forced : No
Text #1
ID : 10
Format : UTF-8
Codec ID : S_TEXT/UTF8
Codec ID/Info : UTF-8 Plain Text
Title : Captions
Language : Russian
Default : Yes
Forced : No
Text #2
ID : 11
Format : UTF-8
Codec ID : S_TEXT/UTF8
Codec ID/Info : UTF-8 Plain Text
Language : Russian
Default : No
Forced : No
Text #3
ID : 12
Format : UTF-8
Codec ID : S_TEXT/UTF8
Codec ID/Info : UTF-8 Plain Text
Title : Быстрицкие
Language : Russian
Default : No
Forced : No
Text #4
ID : 13
Format : UTF-8
Codec ID : S_TEXT/UTF8
Codec ID/Info : UTF-8 Plain Text
Language : English
Default : No
Forced : No
Text #5
ID : 14
Format : UTF-8
Codec ID : S_TEXT/UTF8
Codec ID/Info : UTF-8 Plain Text
Title : Commentary
Language : English
Default : No
Forced : No
Menu
00:00:00.000 : en:Main Titles
00:01:48.691 : en:A Normal Family
00:05:29.287 : en:The Wind
00:09:16.556 : en:A Book Dealer
00:17:32.801 : en:Home Movies
00:20:14.880 : en:A Phone Call
00:26:58.658 : en:Visiting Edward
00:30:47.720 : en:Seeing Paul
00:41:40.456 : en:In Public
00:43:08.460 : en:A Bath
00:48:13.724 : en:Suspicion
00:55:55.477 : en:Loyalty
00:57:14.264 : en:A Detective
01:05:58.162 : en:Just a Friend
01:10:48.953 : en:Confronting Paul
01:19:14.708 : en:Cleaning Up
01:24:57.759 : en:The School Play
01:29:02.045 : en:Eliminating Evidence
01:33:57.673 : en:N.Y.P.D.
01:42:51.915 : en:At the Cleaners
01:44:29.221 : en:A Dinner Party
01:49:54.421 : en:A Message
01:56:17.011 : en:We Could Disappear
01:58:46.744 : en:End Credits

Сэмпл

Скачать

Дополнительно

Исходник HDCLUB, спасибо Прагматик.
Спасибо nabby_3, RekoJ и kro44i за дорожку Карповского.
Спасибо Fikaloid и Vouka за дорожку Визгунова.

_________________
Показать сообщения:    

Текущее время: Сегодня 03:34

Часовой пояс: GMT



Вы не можете начинать темы
Вы не можете отвечать на сообщения
Вы не можете редактировать свои сообщения
Вы не можете удалять свои сообщения
Вы не можете голосовать в опросах
Вы не можете прикреплять файлы к сообщениям
Вы не можете скачивать файлы