Важное объявление!
У Нас Все раздачи мультитрекерные, при нуле пиров в релизах, можете смело вставать на закачку!
 
Автор Сообщение

HUNTER

Стаж:
4 года 4 месяца
Сообщений:
56790

Репутация: 101

[+] [-]
Вне форума [Профиль] [ЛС]

Небо и земля / Heaven & Earth
Страна: Франция, США
Жанр: боевик, драма, военный
Год выпуска: 1993
Продолжительность: 02:21:26
Перевод 1: Профессиональный (двухголосый закадровый) - НТВ+
Перевод 2: Профессиональный (двухголосый закадровый) - ОРТ
Перевод 3: Авторский (одноголосый закадровый) - Ю.Живов
Перевод 4: Авторский (одноголосый закадровый) - В.Горчаков
Cубтитры: Russian, English
Оригинальная аудиодорожка: английский-Режиссер: Оливер Стоун / Oliver Stone-В ролях: Томми Ли Джонс, Джоан Чэнь, Хьеп Тхи Ле, Хэйнг С. Нгор, Буссардо Санрук, Супак Пититам, Тхуан К. Нгуйен, Лан Нгуен Кэлдерон, Тхуан Ле, Дастин Нуен-Описание: Драматическая история вьетнамской женщины на протяжении 30 лет - три разных периода ее жизни. Когда-то ее жизнь была безмятежной и прекрасной... Но ее мир рухнул, когда началась Вьетнамская война. Ее судьба - это судьба женщины, оказавшейся на родной земле между двух огней - Севера и Юга. Ее пытали защитники старого режима, коммунисты изнасиловали. Работая в богатом доме в Сайгоне, она «прижила» ребенка от хозяина. Лишь выйдя замуж за американского сержанта Стива Батлера, героиня фильма узнала, что такое любовь и уважение. Вскоре она уезжает с мужем в Америку, где ее ждут новые испытания.-Релиз:
| Рип от VietHD-Качество видео: BDRip | Sample
Формат видео: MKV
Видео: 1280x534 at 23.976 fps, x264@L4.1,~ 6944 kbps
Аудио: Russian: 48 kHz, AC3, 3/2 (L,C,R,l,r) + LFE ch, ~448.00 kbps avg |НТВ+|
Аудио 2: Russian: 48 kHz, AC3, 1/0 (C) ch, ~128.00 kbps avg |ОРТ|
Аудио 3: Russian:48 kHz, AC3, 3/2 (L,C,R,l,r) + LFE ch, ~640.00 kbps avg |Ю.Живов|
Аудио 4: Russian: 48 kHz, AC3, 2/0 (L,R) ch, ~192.00 kbps avg |В.Горчаков|
Аудио 5: English: 48 kHz, AC3, 3/2 (L,C,R,l,r) + LFE ch, ~640.00 kbps avg-Цитата:
Цитата:

  • Сохранены оригинальные чаптеры как на Blu-ray.

MediaInfo

Код:
Format                      : Matroska
Format version              : Version 4 / Version 2
File size                   : 9.12 GiB
Duration                    : 2h 21mn
Overall bit rate            : 9 232 Kbps
Movie name                  : Heaven.Earth.1993.720p.BluRay.DD5.1.x264-VietHD
Encoded date                : UTC 2016-07-30 09:55:24
Writing application         : mkvmerge v9.3.1 ('Mask Machine') 32bit
Writing library             : libebml v1.3.4 + libmatroska v1.4.5
Video
ID                          : 1
Format                      : AVC
Format/Info                 : Advanced Video Codec
Format profile              : High@L4.1
Format settings, CABAC      : Yes
Format settings, ReFrames   : 12 frames
Codec ID                    : V_MPEG4/ISO/AVC
Duration                    : 2h 21mn
Bit rate                    : 7 083 Kbps
Width                       : 1 280 pixels
Height                      : 534 pixels
Display aspect ratio        : 2.40:1
Frame rate mode             : Constant
Frame rate                  : 23.976 (24000/1001) fps
Color space                 : YUV
Chroma subsampling          : 4:2:0
Bit depth                   : 8 bits
Scan type                   : Progressive
Bits/(Pixel*Frame)          : 0.432
Stream size                 : 7.00 GiB (77%)
Writing library             : x264 core 146 r0+2584 6cf85c6 t_mod_Custom [8-bit@all ]
Encoding settings           : cabac=1 / ref=12 / deblock=1:-3:-3 / analyse=0x3:0x133 / me=umh / subme=10 / psy=1 / fade_compensate=0.00 / psy_rd=1.10:0.00 / mixed_ref=1 / me_range=24 / chroma_me=1 / trellis=2 / 8x8dct=1 / cqm=0 / deadzone=21,11 / fast_pskip=0 / chroma_qp_offset=-2 / threads=12 / lookahead_threads=3 / sliced_threads=0 / nr=0 / decimate=0 / interlaced=0 / bluray_compat=0 / constrained_intra=0 / fgo=0 / bframes=11 / b_pyramid=2 / b_adapt=2 / b_bias=0 / direct=3 / weightb=1 / open_gop=0 / weightp=2 / keyint=250 / keyint_min=23 / scenecut=40 / intra_refresh=0 / rc_lookahead=60 / rc=crf / mbtree=0 / crf=16.4000 / qcomp=0.60 / qpmin=0:0:0 / qpmax=69:69:69 / qpstep=4 / vbv_maxrate=62500 / vbv_bufsize=78125 / crf_max=0.0 / nal_hrd=none / filler=0 / ip_ratio=1.40 / pb_ratio=1.30 / aq=3:0.70 / aq-sensitivity=10.00 / aq-factor=1.00:1.00:1.00 / aq2=0 / aq3=0
Language                    : English
Default                     : Yes
Forced                      : No
Color range                 : Limited
Matrix coefficients         : BT.709
Audio #1
ID                          : 2
Format                      : AC-3
Format/Info                 : Audio Coding 3
Mode extension              : CM (complete main)
Format settings, Endianness : Big
Codec ID                    : A_AC3
Duration                    : 2h 21mn
Bit rate mode               : Constant
Bit rate                    : 448 Kbps
Channel(s)                  : 6 channels
Channel positions           : Front: L C R, Side: L R, LFE
Sampling rate               : 48.0 KHz
Frame rate                  : 31.250 fps (1536 spf)
Compression mode            : Lossy
Stream size                 : 453 MiB (5%)
Title                       : Двухголосый закадровый, НТВ+
Language                    : Russian
Default                     : Yes
Forced                      : No
Audio #2
ID                          : 3
Format                      : AC-3
Format/Info                 : Audio Coding 3
Mode extension              : CM (complete main)
Format settings, Endianness : Big
Codec ID                    : A_AC3
Duration                    : 2h 21mn
Bit rate mode               : Constant
Bit rate                    : 128 Kbps
Channel(s)                  : 1 channel
Channel positions           : Front: C
Sampling rate               : 48.0 KHz
Frame rate                  : 31.250 fps (1536 spf)
Compression mode            : Lossy
Stream size                 : 129 MiB (1%)
Title                       : Двухголосый закадровый, ОРТ
Language                    : Russian
Default                     : No
Forced                      : No
Audio #3
ID                          : 4
Format                      : AC-3
Format/Info                 : Audio Coding 3
Mode extension              : CM (complete main)
Format settings, Endianness : Big
Codec ID                    : A_AC3
Duration                    : 2h 21mn
Bit rate mode               : Constant
Bit rate                    : 640 Kbps
Channel(s)                  : 6 channels
Channel positions           : Front: L C R, Side: L R, LFE
Sampling rate               : 48.0 KHz
Frame rate                  : 31.250 fps (1536 spf)
Compression mode            : Lossy
Stream size                 : 647 MiB (7%)
Title                       : Одноголосый закадровый, Ю.Живов
Language                    : Russian
Default                     : No
Forced                      : No
Audio #4
ID                          : 5
Format                      : AC-3
Format/Info                 : Audio Coding 3
Mode extension              : CM (complete main)
Format settings, Endianness : Big
Codec ID                    : A_AC3
Duration                    : 2h 21mn
Bit rate mode               : Constant
Bit rate                    : 192 Kbps
Channel(s)                  : 2 channels
Channel positions           : Front: L R
Sampling rate               : 48.0 KHz
Frame rate                  : 31.250 fps (1536 spf)
Compression mode            : Lossy
Stream size                 : 194 MiB (2%)
Title                       : Одноголосый закадровый, В.Горчаков
Language                    : Russian
Default                     : No
Forced                      : No
Audio #5
ID                          : 6
Format                      : AC-3
Format/Info                 : Audio Coding 3
Mode extension              : CM (complete main)
Format settings, Endianness : Big
Codec ID                    : A_AC3
Duration                    : 2h 21mn
Bit rate mode               : Constant
Bit rate                    : 640 Kbps
Channel(s)                  : 6 channels
Channel positions           : Front: L C R, Side: L R, LFE
Sampling rate               : 48.0 KHz
Frame rate                  : 31.250 fps (1536 spf)
Compression mode            : Lossy
Stream size                 : 647 MiB (7%)
Language                    : English
Default                     : No
Forced                      : No
Audio #6
ID                          : 7
Format                      : AAC
Format/Info                 : Advanced Audio Codec
Format profile              : LC
Codec ID                    : A_AAC
Duration                    : 2h 21mn
Bit rate                    : 96.0 Kbps
Channel(s)                  : 2 channels
Channel positions           : Front: L R
Sampling rate               : 48.0 KHz
Frame rate                  : 46.875 fps (1024 spf)
Compression mode            : Lossy
Delay relative to video     : 20ms
Stream size                 : 97.9 MiB (1%)
Title                       : commentary
Language                    : English
Default                     : No
Forced                      : No
Text #1
ID                          : 8
Format                      : UTF-8
Codec ID                    : S_TEXT/UTF8
Codec ID/Info               : UTF-8 Plain Text
Duration                    : 2h 15mn
Bit rate                    : 88 bps
Count of elements           : 1546
Stream size                 : 87.9 KiB (0%)
Language                    : Russian
Default                     : No
Forced                      : No
Text #2
ID                          : 9
Format                      : UTF-8
Codec ID                    : S_TEXT/UTF8
Codec ID/Info               : UTF-8 Plain Text
Duration                    : 2h 14mn
Bit rate                    : 48 bps
Count of elements           : 1530
Stream size                 : 48.2 KiB (0%)
Language                    : English
Default                     : No
Forced                      : No
Text #3
ID                          : 10
Format                      : UTF-8
Codec ID                    : S_TEXT/UTF8
Codec ID/Info               : UTF-8 Plain Text
Duration                    : 2h 14mn
Bit rate                    : 51 bps
Count of elements           : 1614
Stream size                 : 50.6 KiB (0%)
Language                    : English
Default                     : No
Forced                      : No
Menu
00:00:00.000                : en:00:00:00.000
00:11:25.935                : en:00:11:25.935
00:21:44.762                : en:00:21:44.762
00:32:02.087                : en:00:32:02.087
00:43:03.539                : en:00:43:03.539
00:56:12.202                : en:00:56:12.202
01:10:42.196                : en:01:10:42.196
01:21:17.664                : en:01:21:17.664
01:33:36.444                : en:01:33:36.444
01:42:57.588                : en:01:42:57.588
01:55:05.357                : en:01:55:05.357
02:16:03.822                : en:02:16:03.822

Скриншоты


_________________
Показать сообщения:    

Текущее время: Сегодня 14:04

Часовой пояс: GMT



Вы не можете начинать темы
Вы не можете отвечать на сообщения
Вы не можете редактировать свои сообщения
Вы не можете удалять свои сообщения
Вы не можете голосовать в опросах
Вы не можете прикреплять файлы к сообщениям
Вы не можете скачивать файлы