Важное объявление!
У Нас Все раздачи мультитрекерные, при нуле пиров в релизах, можете смело вставать на закачку!
 
Автор Сообщение

admin

Стаж:
4 года 4 месяца
Сообщений:
5

Репутация: 1

[+] [-]
Вне форума [Профиль] [ЛС]

Небесный суд
Год выпуска: 2011
Производство: Россия, централ партнершип
Жанр: драма
Продолжительность: 00:45:00
Режиссёр: Алена Званцова
В ролях: Константин Хабенский, Михаил Пореченков, Дмитрий Марьянов, Ингеборга Дапкунайте, Анна Михалкова, Никита Зверев, Олег Мазуров, Яна Сексте, Марина Дуксова, Даниэла Стоянович
Описание: Адвокатская драма с неожиданным ракурсом прочтения. Адвокаты Андрей и Вениамин - друзья, которых объединяет многое, но работа то и дело ставит их на разные стороны баррикад. Особенность их положения в том, что судебные процессы, в которых они участвуют, происходят не в земной жизни, а в загробной. Они - участники Небесного Суда, решающего, куда направить душу человека после смерти, в Рай или в Ад. В одно из дел неожиданно вмешиваются личные интересы Андрея: на скамью подсудимых попадает человек, сделавший предложение его вдове.
Доп. информация: Рекламы нет!-Rip'ы: simka, -Все раздачи сериала: http://reactorr.org/tracker.php?f=9&nm=%...%FB%E9+%F1%F3%E4
Сэмпл: http://www.multiupload.com/X9Z27LSK0H
Качество: SATRip
Формат: AVI
Видео кодек: XviD
Аудио кодек: MP3
Видео: 720x400, 25 fps, XviD, ~1720 kbps, 0.244 bit/pixel
Аудио: 48 kHz, MPEG Layer 3, 2 ch, 192 kbps

MI

Загальна інформація
Видео
Идентификатор : 0
Формат : MPEG-4 Visual
Профиль формата : Simple@L1
Параметр BVOP формата : Нет
Параметр QPel формата : Нет
Параметр GMC формата : Без точки перехода
Параметр матрицы формата : Default (H.263)
Идентификатор кодека : XVID
Идентификатор кодека/Подсказка : XviD
Продолжительность : 46 м.
Битрейт : 1758 Кбит/сек
Ширина : 720 пикс.
Высота : 400 пикс.
Соотношение сторон : 16:9
Частота кадров : 25,000 кадр/сек
Цветовое пространство : YUV
Подвыборка цветности : 4:2:0
Битовая глубина : 8 бит
Тип развёртки : Прогрессивная
Метод сжатия : С потерями
Бит/(Пиксели*Кадры) : 0.244
Размер потока : 287 Мбайт (90%)
Библиотека кодирования : Lavc52.87.1
Аудио
Идентификатор : 1
Формат : MPEG Audio
Версия формата : Version 1
Профиль формата : Layer 3
Идентификатор кодека : 55
Идентификатор кодека/Подсказка : MP3
Продолжительность : 46 м.
Вид битрейта : Постоянный
Битрейт : 192 Кбит/сек
Каналы : 2 канал
Частота : 48,0 КГц
Метод сжатия : С потерями
Размер потока : 31,3 Мбайт (10%)
Выравнивание : Разделение по промежуткам
Продолжительность промежутка : 40 мс. (1,00 видеокадр)
Время предзагрузки промежутка : 500 ms

Скриншоты

Добавленная 3-я и 4-я серия!
!Shalun писал(а):

Закрыто из за отсутствие сидера!
Показать сообщения:    

Текущее время: Сегодня 12:28

Часовой пояс: GMT



Вы не можете начинать темы
Вы не можете отвечать на сообщения
Вы не можете редактировать свои сообщения
Вы не можете удалять свои сообщения
Вы не можете голосовать в опросах
Вы не можете прикреплять файлы к сообщениям
Вы не можете скачивать файлы