Важное объявление!
У Нас Все раздачи мультитрекерные, при нуле пиров в релизах, можете смело вставать на закачку!
 
Автор Сообщение

HUNTER

Стаж:
4 года 4 месяца
Сообщений:
56829

Репутация: 101

[+] [-]
Вне форума [Профиль] [ЛС]

Неадекватные люди
«Биться головой о стенку гораздо веселее, когда знаешь, что за ней скрывается родственная душа.»
-Год выпуска: 2010
Выпущено: Россия / Продюсерский центр «Парадиз», Cinema Prime Film
Жанр: драма, мелодрама, комедия
Продолжительность: 01:46:16
Перевод: Оригинал
Режиссер: Роман Каримов
В ролях: Илья Любимов, Ингрид Олеринская, Евгений Цыганов, Юлия Такшина, Артем Душкин, Полина Иосилевич, Марина Зайцева, Анастасия Федоркова, Назар Ас-Самаррай, Анна Колобаева, Роман Каримов, Ольга Руденко-Сюжет: Тихий и воспитанный Виталик пытается начать жизнь с нуля в новом городе. Но странным образом ему на пути попадаются одни сумасшедшие. Его соседкой по лестничной площадке оказывается взбалмошная Кристина, стремящаяся переделать его из задрота в нормального мужика, на новой работе атакует похотливая начальница и даже психолог, помогающий ему совладать со всем этим - и тот оказывается садо-мазохистом. Виталик кажется единственным адекватным человеком здесь. Но так ли это на самом деле?
IMDB // КиноПоиск // Сэмпл // by sergey_n-Исходник: Neadekvatnie.ludi.2010.Blu-ray
Качество видео: BDRip 720p
Формат: MKV
Видео кодек: AVC
Аудио кодек: DTS
Видео: AVC, 1280 x 720, 23.976 fps, ~3847 Кбит/с
Аудио: DTS, 1152 Кбит/с, 48 kHz (6 ch) Russian
Cубтитры: -//-
Навигация: 18 глав
-

Скриншоты

MediaInfo

Код:
General
Unique ID                                : 205491907095561892866037936860038697899 (0x9A984D3D8D4CBD98AAA7E4D6294813AB)
Complete name                            : D:\VIDEO\Neadekvitnie.Lyudi.2010.720p.BluRay.Rus.HDCLUB.mkv
Format                                   : Matroska
Format version                           : Version 2
File size                                : 3.79 GiB
Duration                                 : 1h 46mn
Overall bit rate                         : 5 101 Kbps
Movie name                               : Неадекватные люди (2010) - Release for HDCLUB
Encoded date                             : UTC 2011-02-18 19:33:24
Writing application                      : mkvmerge v3.4.0 ('Rapunzel') built on May 15 2010 09:38:20
Writing library                          : libebml v0.8.0 + libmatroska v0.9.0
Video
ID                                       : 1
Format                                   : AVC
Format/Info                              : Advanced Video Codec
Format profile                           : High@L4.1
Format settings, CABAC                   : Yes
Format settings, ReFrames                : 8 frames
Codec ID                                 : V_MPEG4/ISO/AVC
Duration                                 : 1h 46mn
Bit rate                                 : 3 847 Kbps
Width                                    : 1 280 pixels
Height                                   : 720 pixels
Display aspect ratio                     : 16:9
Frame rate                               : 23.976 fps
Color space                              : YUV
Chroma subsampling                       : 4:2:0
Bit depth                                : 8 bits
Scan type                                : Progressive
Bits/(Pixel*Frame)                       : 0.174
Stream size                              : 2.86 GiB (75%)
Title                                    : Release for HDCLUB
Writing library                          : x264 core 114 r1900 60ef1f8
Encoding settings                        : cabac=1 / ref=8 / deblock=1:-3:-3 / analyse=0x3:0x133 / me=umh / subme=10 / psy=1 / psy_rd=1.00:0.00 / mixed_ref=1 / me_range=32 / chroma_me=1 / trellis=2 / 8x8dct=1 / cqm=0 / deadzone=21,11 / fast_pskip=0 / chroma_qp_offset=-2 / threads=12 / sliced_threads=0 / nr=0 / decimate=0 / interlaced=0 / constrained_intra=0 / bframes=8 / b_pyramid=2 / b_adapt=2 / b_bias=0 / direct=3 / weightb=1 / open_gop=0 / weightp=2 / keyint=250 / keyint_min=23 / scenecut=40 / intra_refresh=0 / rc_lookahead=60 / rc=crf / mbtree=0 / crf=17.0 / qcomp=0.60 / qpmin=10 / qpmax=51 / qpstep=4 / vbv_maxrate=50000 / vbv_bufsize=62500 / crf_max=0.0 / nal_hrd=none / ip_ratio=1.40 / pb_ratio=1.30 / aq=1:0.80
Language                                 : Russian
Default                                  : No
Forced                                   : No
Audio
ID                                       : 2
Format                                   : DTS
Format/Info                              : Digital Theater Systems
Codec ID                                 : A_DTS
Duration                                 : 1h 46mn
Bit rate mode                            : Constant
Bit rate                                 : 1 152 Kbps
Channel(s)                               : 6 channels
Channel positions                        : Front: L C R, Side: L R, LFE
Sampling rate                            : 48.0 KHz
Bit depth                                : 16 bits
Compression mode                         : Lossy
Stream size                              : 876 MiB (23%)
Title                                    : DTS 5.1 @ 1152 kbps
Language                                 : Russian
Default                                  : Yes
Forced                                   : No
Menu
00:00:00.000                             : en:00:00:00.000
00:05:19.569                             : en:00:05:19.569
00:12:37.423                             : en:00:12:37.423
00:17:41.352                             : en:00:17:41.352
00:23:15.894                             : en:00:23:15.894
00:27:38.240                             : en:00:27:38.240
00:33:24.211                             : en:00:33:24.211
00:39:25.780                             : en:00:39:25.780
00:44:54.066                             : en:00:44:54.066
00:50:08.631                             : en:00:50:08.631
00:56:11.159                             : en:00:56:11.159
01:05:01.981                             : en:01:05:01.981
01:10:57.295                             : en:01:10:57.295
01:15:08.421                             : en:01:15:08.421
01:21:50.155                             : en:01:21:50.155
01:26:24.638                             : en:01:26:24.638
01:32:01.266                             : en:01:32:01.266
01:35:26.721                             : en:01:35:26.721

_________________
Показать сообщения:    

Текущее время: Сегодня 16:20

Часовой пояс: GMT



Вы не можете начинать темы
Вы не можете отвечать на сообщения
Вы не можете редактировать свои сообщения
Вы не можете удалять свои сообщения
Вы не можете голосовать в опросах
Вы не можете прикреплять файлы к сообщениям
Вы не можете скачивать файлы